<?xml version="1.0" standalone="no"?>
<!DOCTYPE svg PUBLIC "-//W3C//DTD SVG 1.1//EN" "http://www.w3.org/Graphics/SVG/1.1/DTD/svg11.dtd" >
<svg xmlns="http://www.w3.org/2000/svg">
<metadata></metadata>
<defs>
<font id="open_sans_condensedbold" horiz-adv-x="948" >
<font-face units-per-em="2048" ascent="1638" descent="-410" />
<missing-glyph horiz-adv-x="506" />
<glyph horiz-adv-x="2048" />
<glyph horiz-adv-x="2048" />
<glyph unicode="&#xd;" horiz-adv-x="1044" />
<glyph unicode=" "  horiz-adv-x="506" />
<glyph unicode="&#x09;" horiz-adv-x="506" />
<glyph unicode="&#xa0;" horiz-adv-x="506" />
<glyph unicode="!" horiz-adv-x="555" d="M111 137q0 78 41.5 121t123.5 43t124 -42.5t42 -121.5q0 -78 -43.5 -121t-122.5 -43q-81 0 -123 43.5t-42 120.5zM119 1462h319l-51 -991h-219z" />
<glyph unicode="&#x22;" horiz-adv-x="913" d="M121 1462h262l-41 -528h-180zM530 1462h263l-41 -528h-181z" />
<glyph unicode="#" horiz-adv-x="1114" d="M41 410v194h217l37 252h-201v193h230l59 413h188l-59 -413h182l62 413h188l-59 -413h190v-193h-219l-37 -252h203v-194h-229l-60 -410h-192l61 410h-182l-58 -410h-192l59 410h-188zM449 604h180l37 252h-183z" />
<glyph unicode="$" d="M74 170v246q80 -47 169 -77t171 -34v338l-35 16q-170 81 -237.5 167.5t-67.5 217.5q0 150 89 241.5t251 109.5v161h116v-159q155 -10 308 -86l-80 -213q-128 62 -228 71v-317q31 -12 31 -14q127 -55 190 -106.5t93 -118t30 -156.5q0 -159 -89.5 -254.5t-254.5 -112.5 v-209h-116v205q-190 6 -340 84zM309 1044q0 -51 24 -82.5t81 -54.5v262q-105 -16 -105 -125zM530 311q109 19 109 140q0 45 -19.5 74.5t-89.5 64.5v-279z" />
<glyph unicode="%" horiz-adv-x="1554" d="M63 1022q0 461 289 461q295 0 295 -457q0 -226 -75.5 -343.5t-219.5 -117.5q-149 0 -219 115t-70 342zM276 1024q0 -139 18 -202.5t60 -63.5t61 63.5t19 202.5t-19.5 202.5t-60.5 63.5q-42 0 -60 -63.5t-18 -202.5zM371 0l602 1462h209l-604 -1462h-207zM907 438 q0 224 71.5 342.5t217.5 118.5q295 0 295 -457q0 -226 -76 -343t-219 -117q-150 0 -219.5 114.5t-69.5 341.5zM1120 440q0 -139 18 -202.5t60 -63.5t61 63.5t19 202.5t-19.5 202t-60.5 63t-59.5 -63t-18.5 -202z" />
<glyph unicode="&#x26;" horiz-adv-x="1190" d="M59 391q0 248 244 416q-77 119 -102 188t-25 146q0 156 97 249t255 93q152 0 242 -86.5t90 -239.5q0 -105 -55 -199.5t-184 -191.5l204 -287q34 62 53 138t33 151h232q-38 -280 -166 -498l194 -270h-299l-71 102q-136 -122 -338 -122q-192 0 -298 109t-106 302zM328 416 q0 -93 44 -146t120 -53q100 0 176 74l-240 346q-100 -90 -100 -221zM424 1130q0 -55 23.5 -101.5t58.5 -94.5q61 47 84.5 91t23.5 108q0 65 -26.5 94.5t-63.5 29.5q-46 0 -73 -32.5t-27 -94.5z" />
<glyph unicode="'" horiz-adv-x="504" d="M121 1462h262l-41 -528h-180z" />
<glyph unicode="(" horiz-adv-x="666" d="M74 561q0 265 77.5 496t223.5 405h235q-140 -193 -212 -424t-72 -475q0 -247 75 -477t207 -410h-233q-147 170 -224 397t-77 488z" />
<glyph unicode=")" horiz-adv-x="666" d="M55 1462h236q147 -175 224 -406.5t77 -494.5t-77.5 -490t-223.5 -395h-234q135 184 209 412.5t74 474.5q0 244 -72 475t-213 424z" />
<glyph unicode="*" horiz-adv-x="952" d="M53 1114l37 221l303 -86l-37 307h238l-37 -307l311 86l33 -225l-285 -18l185 -246l-199 -109l-129 260l-117 -260l-204 109l182 246z" />
<glyph unicode="+" horiz-adv-x="918" d="M106 618v207h254v373h197v-373h254v-207h-254v-368h-197v368h-254z" />
<glyph unicode="," horiz-adv-x="553" d="M51 -264q65 266 101 502h264l14 -23q-52 -202 -176 -479h-203z" />
<glyph unicode="-" horiz-adv-x="647" d="M72 432v234h503v-234h-503z" />
<glyph unicode="." horiz-adv-x="553" d="M111 137q0 78 41.5 121t123.5 43t124 -42.5t42 -121.5q0 -78 -43.5 -121t-122.5 -43q-81 0 -123 43.5t-42 120.5z" />
<glyph unicode="/" horiz-adv-x="829" d="M16 0l545 1462h256l-545 -1462h-256z" />
<glyph unicode="0" d="M74 731q0 396 97 575t304 179q211 0 305 -175t94 -579q0 -397 -95.5 -574t-307.5 -177t-304.5 178t-92.5 573zM346 731q0 -307 26.5 -413.5t100.5 -106.5q50 0 77.5 46t39.5 152.5t12 321.5q0 302 -28 412t-101 110q-74 0 -100.5 -109.5t-26.5 -412.5z" />
<glyph unicode="1" d="M98 1102l389 360h242v-1462h-268v858q0 140 14 322q-7 -10 -51.5 -61t-173.5 -183z" />
<glyph unicode="2" d="M61 1276q105 119 195 163t195 44q177 0 276.5 -104t99.5 -289q0 -84 -18 -159t-54.5 -150.5t-91.5 -157t-284 -373.5v-8h479v-242h-784v203l260 368q107 152 147 225.5t59 141t19 139.5q0 84 -37.5 126t-97.5 42q-53 0 -99 -28t-112 -101z" />
<glyph unicode="3" d="M63 49v244q66 -40 143 -63t148 -23q116 0 175 53.5t59 169.5q0 219 -269 219h-83v203h79q119 0 182.5 56t63.5 167q0 87 -40.5 131.5t-114.5 44.5q-113 0 -220 -96l-123 180q148 148 373 148q185 0 289 -93.5t104 -256.5q0 -138 -68 -231.5t-192 -129.5v-8 q138 -22 213.5 -108t75.5 -234q0 -202 -125.5 -322t-343.5 -120q-194 0 -326 69z" />
<glyph unicode="4" d="M37 307v221l442 934h291v-930h148v-225h-148v-307h-256v307h-477zM266 532h248v308l5 136l7 130h-8q-35 -109 -76 -197z" />
<glyph unicode="5" d="M90 53v254q51 -37 131.5 -65.5t149.5 -28.5q215 0 215 250q0 233 -209 233q-83 0 -176 -32l-88 65l45 733h624v-243h-391l-20 -316q56 12 129 12q165 0 262.5 -115t97.5 -315q0 -239 -121.5 -372t-337.5 -133q-192 0 -311 73z" />
<glyph unicode="6" d="M74 621q0 447 139 653.5t424 206.5q45 0 90 -5.5t68 -11.5v-225q-69 16 -136 16q-114 0 -187 -50t-111 -149.5t-46 -279.5h11q35 83 96 125.5t141 42.5q147 0 229 -119.5t82 -341.5q0 -232 -108 -367.5t-293 -135.5q-196 0 -297.5 162t-101.5 479zM344 510 q0 -146 34.5 -223.5t96.5 -77.5q60 0 96.5 66t36.5 206q0 113 -32.5 178.5t-98.5 65.5q-59 0 -96 -61t-37 -154z" />
<glyph unicode="7" d="M80 1219v241h784v-184l-403 -1276h-281l410 1219h-510z" />
<glyph unicode="8" d="M72 371q0 126 53.5 222.5t165.5 168.5q-104 83 -148.5 167.5t-44.5 190.5q0 164 105.5 262.5t271.5 98.5q171 0 273 -97t102 -264q0 -103 -47.5 -186.5t-161.5 -159.5q128 -91 182 -186.5t54 -208.5q0 -179 -110 -289t-292 -110q-189 0 -296 101.5t-107 289.5zM330 385 q0 -88 36.5 -140t104.5 -52q74 0 110.5 52t36.5 140q0 63 -29 119t-112 129l-14 14q-65 -48 -99 -109.5t-34 -152.5zM358 1110q0 -66 24 -115t93 -104q66 51 90.5 102t24.5 117q0 160 -117 160q-57 0 -86 -41.5t-29 -118.5z" />
<glyph unicode="9" d="M68 973q0 234 107.5 371t287.5 137q196 0 300.5 -169t104.5 -487q0 -845 -565 -845q-94 0 -156 16v229q68 -22 127 -22q167 0 253.5 116t95.5 365h-9q-32 -79 -91.5 -123.5t-141.5 -44.5q-149 0 -231 122t-82 335zM334 979q0 -115 31 -179.5t94 -64.5q57 0 99 65.5 t42 149.5q0 130 -37 214.5t-98 84.5q-60 0 -95.5 -65t-35.5 -205z" />
<glyph unicode=":" horiz-adv-x="553" d="M111 137q0 78 41.5 121t123.5 43t124 -42.5t42 -121.5q0 -78 -43.5 -121t-122.5 -43q-81 0 -123 43.5t-42 120.5zM111 973q0 78 41.5 121t123.5 43t124 -42.5t42 -121.5q0 -78 -43.5 -121t-122.5 -43q-81 0 -123 43.5t-42 120.5z" />
<glyph unicode=";" horiz-adv-x="553" d="M51 -264q65 266 101 502h264l14 -23q-52 -202 -176 -479h-203zM111 973q0 78 41.5 121t123.5 43t124 -42.5t42 -121.5q0 -78 -43.5 -121t-122.5 -43q-81 0 -123 43.5t-42 120.5z" />
<glyph unicode="&#x3c;" horiz-adv-x="918" d="M106 645v156l705 434v-225l-487 -287l487 -289v-225z" />
<glyph unicode="=" horiz-adv-x="918" d="M106 422v207h705v-207h-705zM106 815v205h705v-205h-705z" />
<glyph unicode="&#x3e;" horiz-adv-x="918" d="M106 209v225l490 289l-490 287v225l705 -434v-156z" />
<glyph unicode="?" horiz-adv-x="782" d="M25 1376q157 107 348 107q165 0 260.5 -91.5t95.5 -254.5q0 -114 -33 -193.5t-137 -191.5q-67 -73 -85.5 -112.5t-18.5 -107.5v-61h-236v70q0 96 29.5 167.5t107.5 153.5q74 81 94.5 127t20.5 117q0 65 -30 106t-95 41q-108 0 -227 -77zM172 137q0 79 42.5 121.5 t123.5 42.5q82 0 124 -43.5t42 -120.5q0 -76 -43 -120t-123 -44t-123 43t-43 121z" />
<glyph unicode="@" horiz-adv-x="1485" d="M74 594q0 260 89.5 462t253.5 311.5t374 109.5q294 0 457 -192t163 -537q0 -244 -82.5 -380.5t-230.5 -136.5q-69 0 -121 38.5t-68 101.5h-8q-34 -63 -87 -101.5t-122 -38.5q-123 0 -192.5 92.5t-69.5 280.5q0 223 98.5 356.5t264.5 133.5q118 0 256 -43l-21 -466v-38 q0 -82 17.5 -113t54.5 -31q50 0 79 93.5t29 253.5q0 274 -110 411t-312 137q-149 0 -265 -88t-179 -247.5t-63 -358.5q0 -279 122.5 -435.5t337.5 -156.5q178 0 365 90v-182q-165 -88 -367 -88t-352.5 91.5t-230.5 264.5t-80 406zM637 604q0 -96 22.5 -148.5t65.5 -52.5 q50 0 74 68.5t32 210.5l13 229q-24 11 -62 11q-65 0 -105 -90t-40 -228z" />
<glyph unicode="A" horiz-adv-x="1094" d="M0 0l362 1468h369l363 -1468h-273l-84 369h-381l-84 -369h-272zM410 610h276l-78 340q-7 31 -31.5 155.5t-29.5 166.5q-13 -86 -33 -189.5t-104 -472.5z" />
<glyph unicode="B" horiz-adv-x="1038" d="M129 0v1462h373q228 0 332 -88.5t104 -281.5q0 -127 -55 -212.5t-150 -103.5v-10q124 -31 179 -116t55 -226q0 -199 -106.5 -311.5t-291.5 -112.5h-440zM385 238h137q85 0 126.5 52t41.5 161q0 196 -172 196h-133v-409zM385 874h125q86 0 121 46t35 137t-40 130.5 t-126 39.5h-115v-353z" />
<glyph unicode="C" d="M84 729q0 356 136.5 555t379.5 199q80 0 153.5 -22t157.5 -77l-90 -221q-45 31 -96 56.5t-111 25.5q-117 0 -184.5 -137t-67.5 -381q0 -508 265 -508q116 0 243 74v-242q-107 -71 -274 -71q-247 0 -379.5 196.5t-132.5 552.5z" />
<glyph unicode="D" horiz-adv-x="1143" d="M129 0v1462h391q255 0 397 -188.5t142 -528.5q0 -362 -147.5 -553.5t-424.5 -191.5h-358zM401 238h88q149 0 220 124.5t71 374.5q0 490 -270 490h-109v-989z" />
<glyph unicode="E" horiz-adv-x="872" d="M129 0v1462h659v-235h-387v-348h359v-236h-359v-405h387v-238h-659z" />
<glyph unicode="F" horiz-adv-x="838" d="M129 0v1462h655v-235h-385v-406h359v-235h-359v-586h-270z" />
<glyph unicode="G" horiz-adv-x="1112" d="M84 733q0 352 157.5 551t440.5 199q175 0 334 -90l-86 -222q-124 72 -232 72q-155 0 -245.5 -138.5t-90.5 -377.5q0 -246 65.5 -377t190.5 -131q66 0 134 17v335h-181v240h447v-750q-190 -81 -404 -81q-255 0 -392.5 194t-137.5 559z" />
<glyph unicode="H" horiz-adv-x="1161" d="M129 0v1462h272v-581h359v581h272v-1462h-272v641h-359v-641h-272z" />
<glyph unicode="I" horiz-adv-x="614" d="M178 0v1462h256v-1462h-256z" />
<glyph unicode="J" horiz-adv-x="530" d="M-154 -160q65 -20 123 -20q83 0 121.5 53t38.5 158v1431h272v-1417q0 -144 -48.5 -250t-137 -161.5t-201.5 -55.5q-106 0 -168 25v237z" />
<glyph unicode="K" horiz-adv-x="1040" d="M129 0v1462h272v-725l95 219l249 506h291l-338 -633l342 -829h-290l-240 625l-109 -109v-516h-272z" />
<glyph unicode="L" horiz-adv-x="823" d="M129 0v1462h272v-1224h377v-238h-649z" />
<glyph unicode="M" horiz-adv-x="1606" d="M129 0v1462h418l250 -1149h8l248 1149h424v-1462h-258v991q0 123 14 252h-8l-277 -1243h-297l-278 1245h-11q19 -144 19 -264v-981h-252z" />
<glyph unicode="N" horiz-adv-x="1282" d="M129 0v1462h334l448 -1048h11q-19 105 -19 250v798h250v-1462h-332l-452 1059h-13q25 -121 25 -260v-799h-252z" />
<glyph unicode="O" horiz-adv-x="1219" d="M84 735q0 363 136 556.5t392 193.5q253 0 388 -194.5t135 -557.5t-136 -558t-389 -195q-254 0 -390 194.5t-136 560.5zM362 733q0 -250 63 -381t185 -131q246 0 246 512t-244 512q-124 0 -187 -130.5t-63 -381.5z" />
<glyph unicode="P" horiz-adv-x="981" d="M129 0v1462h371q426 0 426 -450q0 -233 -117.5 -357.5t-339.5 -124.5h-68v-530h-272zM401 766h52q100 0 149 55t49 180q0 115 -45 170.5t-139 55.5h-66v-461z" />
<glyph unicode="Q" horiz-adv-x="1219" d="M84 735q0 363 136 556.5t392 193.5q253 0 388 -194.5t135 -557.5q0 -251 -66.5 -424t-196.5 -258l269 -399h-314l-202 328h-15q-254 0 -390 194.5t-136 560.5zM362 733q0 -250 63 -381t185 -131q246 0 246 512t-244 512q-124 0 -187 -130.5t-63 -381.5z" />
<glyph unicode="R" horiz-adv-x="1024" d="M129 0v1462h356q226 0 333.5 -107t107.5 -327q0 -277 -187 -387l281 -641h-291l-231 569h-97v-569h-272zM401 803h70q96 0 138 54.5t42 162.5q0 112 -44.5 159.5t-137.5 47.5h-68v-424z" />
<glyph unicode="S" horiz-adv-x="846" d="M68 55v269q164 -107 301 -107q78 0 117.5 43t39.5 117q0 73 -47 133.5t-155 134.5q-94 65 -142.5 124.5t-75 133.5t-26.5 172q0 188 104.5 298t280.5 110q168 0 323 -94l-90 -218q-48 28 -100.5 50t-112.5 22q-66 0 -101.5 -43.5t-35.5 -118.5q0 -74 42.5 -129 t148.5 -125q143 -96 199.5 -196t56.5 -228q0 -205 -103.5 -314t-298.5 -109q-191 0 -325 75z" />
<glyph unicode="T" horiz-adv-x="885" d="M27 1223v239h831v-239h-280v-1223h-271v1223h-280z" />
<glyph unicode="U" horiz-adv-x="1151" d="M123 520v942h270v-962q0 -279 185 -279q86 0 133 71t47 202v968h270v-946q0 -261 -118 -398.5t-341 -137.5q-218 0 -332 136.5t-114 403.5z" />
<glyph unicode="V" horiz-adv-x="1032" d="M0 1462h274l191 -893q26 -114 51 -327q21 181 53 327l189 893h274l-344 -1462h-346z" />
<glyph unicode="W" horiz-adv-x="1622" d="M18 1462h267l131 -825q19 -124 51 -389q25 268 47 383l156 831h282l156 -831q31 -185 49 -385q35 296 51 391l127 825h269l-263 -1462h-340l-143 766q-33 157 -47 371l-8 -74l-41 -301l-139 -762h-340z" />
<glyph unicode="X" horiz-adv-x="969" d="M0 0l334 760l-309 702h274l193 -481l167 481h285l-309 -714l334 -748h-283l-209 524l-194 -524h-283z" />
<glyph unicode="Y" horiz-adv-x="961" d="M0 1462h287l194 -577l195 577h285l-347 -876v-586h-268v575z" />
<glyph unicode="Z" horiz-adv-x="877" d="M43 0v190l467 1035h-453v237h762v-190l-467 -1034h482v-238h-791z" />
<glyph unicode="[" horiz-adv-x="649" d="M133 -324v1786h469v-198h-223v-1389h223v-199h-469z" />
<glyph unicode="\" horiz-adv-x="829" d="M14 1462h258l545 -1462h-258z" />
<glyph unicode="]" horiz-adv-x="649" d="M47 -125h223v1389h-223v198h469v-1786h-469v199z" />
<glyph unicode="^" horiz-adv-x="1090" d="M14 526l437 944h135l493 -944h-225l-330 660l-288 -660h-222z" />
<glyph unicode="_" horiz-adv-x="696" d="M-4 -184h704v-140h-704v140z" />
<glyph unicode="`" horiz-adv-x="1114" d="M311 1548v21h318q27 -60 80.5 -155.5t91.5 -145.5v-27h-187q-75 60 -176 160.5t-127 146.5z" />
<glyph unicode="a" horiz-adv-x="956" d="M55 328q0 176 96.5 261.5t288.5 94.5l148 6v80q0 156 -135 156q-100 0 -230 -78l-92 184q166 105 361 105q177 0 269.5 -101.5t92.5 -287.5v-748h-195l-53 152h-6q-59 -98 -122 -135t-159 -37q-123 0 -193.5 92t-70.5 256zM330 326q0 -138 98 -138q73 0 116.5 65.5 t43.5 174.5v94l-82 -4q-91 -5 -133.5 -52t-42.5 -140z" />
<glyph unicode="b" horiz-adv-x="1016" d="M113 0v1556h266v-364q0 -23 -1 -48t-13 -175h14q49 92 106 129t131 37q152 0 239 -151t87 -425q0 -277 -87.5 -428t-242.5 -151q-75 0 -132.5 32.5t-108.5 114.5h-17l-45 -127h-196zM379 561q0 -194 34.5 -273t112.5 -79q144 0 144 354q0 346 -146 346q-76 0 -109.5 -71 t-35.5 -250v-27z" />
<glyph unicode="c" horiz-adv-x="760" d="M74 551q0 294 98.5 439t304.5 145q62 0 130 -18t122 -52l-76 -207q-83 49 -147 49q-85 0 -122.5 -88.5t-37.5 -265.5q0 -173 37 -258.5t121 -85.5q100 0 209 70v-234q-105 -65 -232 -65q-199 0 -303 145t-104 426z" />
<glyph unicode="d" horiz-adv-x="1016" d="M74 555q0 272 87 426t240 154q76 0 131.5 -37.5t102.5 -126.5h16q-12 152 -12 213v372h266v-1556h-198l-45 145h-9q-85 -165 -247 -165q-154 0 -243 152t-89 423zM348 551q0 -173 34 -259.5t110 -86.5q74 0 108 67.5t37 245.5v35q0 194 -34.5 273t-113.5 79 q-74 0 -107.5 -90.5t-33.5 -263.5z" />
<glyph unicode="e" horiz-adv-x="942" d="M74 549q0 276 109 431t304 155q182 0 287 -132.5t105 -371.5v-142h-535q3 -149 61 -221.5t160 -72.5q130 0 266 81v-219q-128 -77 -307 -77q-209 0 -329.5 148.5t-120.5 420.5zM348 682h270q-2 122 -37 185t-96 63q-57 0 -94 -60.5t-43 -187.5z" />
<glyph unicode="f" horiz-adv-x="612" d="M29 903v133l129 80v84q0 186 77 276.5t248 90.5q108 0 201 -45l-70 -203q-50 24 -102 24q-46 0 -67 -36t-21 -111v-82h184v-211h-184v-903h-266v903h-129z" />
<glyph unicode="g" horiz-adv-x="936" d="M18 -182q0 93 57 163.5t158 102.5q-51 20 -83.5 62t-32.5 98q0 34 10 61.5t28.5 52t75.5 72.5q-69 42 -109 129t-40 193q0 183 96 283t275 100q34 0 78 -7.5t67 -15.5h317v-156l-133 -30q39 -70 39 -176q0 -177 -96 -277t-268 -100q-50 0 -74 8q-19 -17 -36 -38t-17 -52 q0 -70 121 -70h161q142 0 218.5 -76.5t76.5 -230.5q0 -194 -130 -300t-374 -106q-185 0 -285 80.5t-100 229.5zM260 -162q0 -66 41.5 -101.5t118.5 -35.5q121 0 181.5 46t60.5 126q0 63 -32.5 89t-121.5 26h-129q-54 0 -86.5 -40.5t-32.5 -109.5zM342 750q0 -197 111 -197 q108 0 108 199q0 204 -108 204q-111 0 -111 -206z" />
<glyph unicode="h" horiz-adv-x="1038" d="M113 0v1556h266v-346q0 -67 -12 -239h14q80 164 246 164q153 0 231 -103.5t78 -304.5v-727h-268v664q0 245 -123 245q-92 0 -129 -96.5t-37 -277.5v-535h-266z" />
<glyph unicode="i" horiz-adv-x="496" d="M104 1405q0 66 38.5 104.5t107.5 38.5q65 0 104 -38.5t39 -104.5q0 -68 -40 -105.5t-103 -37.5q-66 0 -106 37.5t-40 105.5zM115 0v1114h266v-1114h-266z" />
<glyph unicode="j" horiz-adv-x="500" d="M-59 -246q46 -18 86 -18q94 0 94 170v1208h266v-1243q0 -174 -80.5 -268.5t-226.5 -94.5q-84 0 -139 25v221zM111 1405q0 66 38.5 104.5t106.5 38.5q67 0 105 -39t38 -104q0 -67 -39 -105t-104 -38t-105 37t-40 106z" />
<glyph unicode="k" horiz-adv-x="965" d="M113 0v1556h266v-733l-12 -223h8l67 133l220 381h282l-282 -457l301 -657h-279l-201 471l-104 -94v-377h-266z" />
<glyph unicode="l" horiz-adv-x="489" d="M113 0v1556h266v-1556h-266z" />
<glyph unicode="m" horiz-adv-x="1589" d="M113 0v1114h211l32 -143h17q40 85 109.5 124.5t148.5 39.5q204 0 272 -193h10q85 193 273 193q148 0 224.5 -104t76.5 -304v-727h-268v664q0 245 -121 245q-88 0 -126 -87.5t-38 -280.5v-541h-268v664q0 245 -123 245q-86 0 -125 -87t-39 -287v-535h-266z" />
<glyph unicode="n" horiz-adv-x="1038" d="M113 0v1114h211l32 -143h17q36 77 103 120.5t157 43.5q152 0 227.5 -104t75.5 -304v-727h-268v664q0 121 -29 183t-94 62q-86 0 -126 -85.5t-40 -288.5v-535h-266z" />
<glyph unicode="o" horiz-adv-x="1012" d="M74 559q0 271 115 423.5t319 152.5q197 0 313.5 -155.5t116.5 -420.5q0 -274 -116 -426.5t-318 -152.5q-128 0 -226 70t-151 201.5t-53 307.5zM346 559q0 -174 38 -263t122 -89q160 0 160 352q0 175 -38.5 261.5t-121.5 86.5q-84 0 -122 -86.5t-38 -261.5z" />
<glyph unicode="p" horiz-adv-x="1016" d="M113 -492v1606h206l46 -145h12q83 166 241 166q152 0 238 -150.5t86 -425.5q0 -271 -89 -425t-243 -154q-72 0 -127.5 32.5t-103.5 114.5h-14q16 -136 16 -164v-455h-268zM379 561q0 -184 35 -268t116 -84q140 0 140 354q0 174 -34.5 260t-107.5 86q-78 0 -112.5 -72.5 t-36.5 -240.5v-35z" />
<glyph unicode="q" horiz-adv-x="1016" d="M74 555q0 273 86.5 426.5t238.5 153.5q78 0 135 -38t103 -126h14l29 143h225v-1606h-266v469q0 36 12 168h-10q-42 -86 -100 -125.5t-135 -39.5q-156 0 -244 152t-88 423zM348 551q0 -177 33.5 -262.5t105.5 -85.5q79 0 113.5 72.5t36.5 240.5v37q0 184 -35 268t-115 84 q-139 0 -139 -354z" />
<glyph unicode="r" horiz-adv-x="690" d="M113 0v1114h219l30 -174h9q44 105 96 150t121 45q49 0 96 -15l-31 -258q-28 10 -73 10q-97 0 -149 -76.5t-52 -222.5v-573h-266z" />
<glyph unicode="s" horiz-adv-x="766" d="M61 45v231q55 -38 128.5 -63t129.5 -25q62 0 94.5 30.5t32.5 80.5q0 51 -34 89t-125 93q-121 72 -173.5 153.5t-52.5 192.5q0 142 97.5 225t267.5 83q148 0 279 -78l-87 -191q-107 58 -188 58q-51 0 -76.5 -27t-25.5 -66q0 -45 31.5 -80t117.5 -87q104 -63 146 -107 t65 -100t23 -131q0 -163 -95.5 -254.5t-281.5 -91.5q-165 0 -273 65z" />
<glyph unicode="t" horiz-adv-x="664" d="M33 903v119l139 96l68 236h170v-240h202v-211h-202v-586q0 -112 90 -112q56 0 121 28v-208q-65 -45 -195 -45q-145 0 -215 86.5t-70 259.5v577h-108z" />
<glyph unicode="u" horiz-adv-x="1038" d="M102 387v727h269v-663q0 -122 29 -184t94 -62q86 0 125.5 86t39.5 289v534h269v-1114h-213l-33 143h-14q-37 -76 -105.5 -119.5t-156.5 -43.5q-150 0 -227 102t-77 305z" />
<glyph unicode="v" horiz-adv-x="913" d="M0 1114h276l142 -645q9 -45 21.5 -131.5t15.5 -124.5h4q1 30 8.5 86t15.5 103t154 712h276l-292 -1114h-330z" />
<glyph unicode="w" horiz-adv-x="1479" d="M20 1114h267l102 -614q18 -102 33 -299h6q2 53 14 161.5t17 139.5l110 612h342l109 -614q19 -98 33 -299h4q14 179 35 299l106 614h260l-223 -1114h-346l-111 647l-39 273h-4q-15 -133 -24 -192.5t-127 -727.5h-342z" />
<glyph unicode="x" horiz-adv-x="889" d="M14 0l291 569l-278 545h276l148 -340l137 340h274l-280 -545l292 -569h-278l-158 356l-147 -356h-277z" />
<glyph unicode="y" horiz-adv-x="913" d="M0 1114h276l154 -629q23 -84 37 -235h6q1 24 9 85.5t13 96.5t138 682h280l-319 -1194q-58 -220 -154 -316t-256 -96q-79 0 -141 17v223q41 -12 92 -12q134 0 176 176l19 70z" />
<glyph unicode="z" horiz-adv-x="731" d="M41 0v170l342 729h-320v215h613v-188l-332 -711h346v-215h-649z" />
<glyph unicode="{" horiz-adv-x="737" d="M25 457v223q124 0 191 40t67 132v8v320q0 108 41.5 167.5t133 87t247.5 27.5v-211q-101 -3 -138 -37.5t-37 -107.5v-303q-3 -194 -231 -228v-12q231 -34 231 -215v-12v-303q0 -73 36.5 -108t138.5 -38v-211q-158 0 -248.5 27.5t-132 87.5t-41.5 168v317q0 99 -67 140 t-191 41z" />
<glyph unicode="|" horiz-adv-x="1038" d="M416 -471v2023h207v-2023h-207z" />
<glyph unicode="}" horiz-adv-x="737" d="M33 -113q102 3 139 37.5t37 108.5v303v9q0 91 59.5 146t173.5 72v12q-229 34 -233 228v303q0 74 -37 108t-139 37v211q234 0 329 -63.5t95 -218.5v-320v-8q0 -92 65.5 -132t190.5 -40v-223q-125 0 -190.5 -41t-65.5 -140v-317q0 -156 -95.5 -219.5t-328.5 -63.5v211z" />
<glyph unicode="~" horiz-adv-x="918" d="M74 557v219q90 109 207 109q43 0 80.5 -10.5t123.5 -53.5q67 -34 99 -44.5t73 -10.5q87 0 187 121v-219q-81 -109 -207 -109q-51 0 -99.5 16.5t-107.5 47.5q-82 41 -108 48t-58 7q-88 0 -190 -121z" />
<glyph unicode="&#xa2;" d="M147 737q0 252 73.5 395t225.5 179v168h166v-160q106 -16 193 -66l-78 -209q-85 50 -147 50q-85 0 -122.5 -87.5t-37.5 -267.5q0 -171 37 -257.5t121 -86.5q100 0 208 72v-234q-77 -50 -174 -61v-192h-166v200q-299 79 -299 557z" />
<glyph unicode="&#xa3;" d="M76 0v229q92 49 124.5 108.5t32.5 156.5v157h-155v203h155v219q0 199 93.5 304.5t271.5 105.5q157 0 283 -72l-84 -211q-92 53 -183 53q-114 0 -114 -186v-213h241v-203h-241v-133q0 -91 -30.5 -158.5t-100.5 -117.5h534v-242h-827z" />
<glyph unicode="&#xa5;" d="M6 1462h283l186 -618l184 618h283l-276 -751h186v-170h-244v-142h244v-170h-244v-229h-266v229h-246v170h246v142h-246v170h187z" />
<glyph unicode="&#xa8;" horiz-adv-x="1130" d="M233 1403q0 61 35 95t97 34t97.5 -35.5t35.5 -93.5q0 -57 -35.5 -92t-97.5 -35t-97 33.5t-35 93.5zM631 1403q0 60 35 94.5t98 34.5q61 0 97 -34t36 -95q0 -59 -35.5 -93t-97.5 -34t-97.5 34.5t-35.5 92.5z" />
<glyph unicode="&#xa9;" horiz-adv-x="1688" d="M92 731q0 200 100 375t275 276t377 101q197 0 370 -97t277 -272t104 -383q0 -204 -100.5 -376.5t-273 -273.5t-377.5 -101q-207 0 -382 103.5t-272.5 276.5t-97.5 371zM227 731q0 -165 83 -308.5t225.5 -225.5t308.5 -82t309 82t225 225t82 309t-82 308.5t-225 225.5 t-309 83q-165 0 -308.5 -82.5t-226 -225.5t-82.5 -309zM457 733q0 219 110 341t307 122q142 0 295 -74l-71 -161q-111 57 -211 57q-102 0 -157.5 -75.5t-55.5 -211.5q0 -140 49.5 -214.5t163.5 -74.5q56 0 124 16.5t115 41.5v-181q-116 -55 -245 -55q-201 0 -312.5 123.5 t-111.5 345.5z" />
<glyph unicode="&#xab;" horiz-adv-x="1141" d="M74 543v26l307 447l199 -111l-220 -348l220 -348l-199 -111zM561 543v26l307 447l199 -111l-219 -348l219 -348l-199 -111z" />
<glyph unicode="&#xad;" horiz-adv-x="647" d="M72 432v234h503v-234h-503z" />
<glyph unicode="&#xae;" horiz-adv-x="1688" d="M92 731q0 200 100 375t275 276t377 101q197 0 370 -97t277 -272t104 -383q0 -204 -100.5 -376.5t-273 -273.5t-377.5 -101q-207 0 -382 103.5t-272.5 276.5t-97.5 371zM227 731q0 -165 83 -308.5t225.5 -225.5t308.5 -82t309 82t225 225t82 309t-82 308.5t-225 225.5 t-309 83q-165 0 -308.5 -82.5t-226 -225.5t-82.5 -309zM543 274v912h258q180 0 263 -68t83 -211q0 -170 -148 -233l19 -29l219 -371h-238l-184 342h-57v-342h-215zM758 776h39q71 0 102 29.5t31 97.5q0 70 -33 95.5t-102 25.5h-37v-248z" />
<glyph unicode="&#xb4;" horiz-adv-x="1114" d="M311 1241v27q41 53 95 151t77 150h318v-21q-24 -43 -119 -138.5t-184 -168.5h-187z" />
<glyph unicode="&#xb8;" horiz-adv-x="416" d="M-25 -317q61 -17 121 -17q88 0 88 66q0 84 -157 110l79 158h173l-37 -76q68 -17 111.5 -63t43.5 -121q0 -107 -71 -169.5t-220 -62.5q-73 0 -131 21v154z" />
<glyph unicode="&#xbb;" horiz-adv-x="1141" d="M74 209l219 348l-219 348l198 111l308 -447v-26l-308 -445zM561 209l219 348l-219 348l199 111l307 -447v-26l-307 -445z" />
<glyph unicode="&#x2c6;" horiz-adv-x="1135" d="M211 1241v27q177 223 217 301h277q47 -87 217 -301v-27h-168q-96 72 -189 178q-89 -100 -186 -178h-168z" />
<glyph unicode="&#x2da;" horiz-adv-x="1116" d="M311 1473q0 108 67 170.5t177 62.5q109 0 179.5 -64t70.5 -167q0 -107 -69.5 -171.5t-180.5 -64.5q-110 0 -177 62.5t-67 171.5zM455 1473q0 -47 25 -74t75 -27q43 0 71.5 27t28.5 74q0 46 -28.5 73t-71.5 27t-71.5 -27t-28.5 -73z" />
<glyph unicode="&#x2dc;" horiz-adv-x="1135" d="M221 1239q11 153 68.5 227t150.5 74q43 0 77.5 -16.5t64.5 -36.5t58 -36.5t58 -16.5q34 0 49.5 26t26.5 82h141q-11 -152 -69.5 -226.5t-149.5 -74.5q-44 0 -78.5 16.5t-64 37t-56.5 37t-57 16.5q-31 0 -49.5 -23.5t-28.5 -85.5h-141z" />
<glyph unicode="&#x400;" horiz-adv-x="872" d="M129 0v1462h659v-235h-387v-348h359v-236h-359v-405h387v-238h-659zM134 1886v21h318q27 -60 80.5 -155.5t91.5 -145.5v-27h-187q-75 60 -176 160.5t-127 146.5z" />
<glyph unicode="&#x401;" horiz-adv-x="872" d="M129 0v1462h659v-235h-387v-348h359v-236h-359v-405h387v-238h-659zM130 1741q0 61 35 95t97 34t97.5 -35.5t35.5 -93.5q0 -57 -35.5 -92t-97.5 -35t-97 33.5t-35 93.5zM528 1741q0 60 35 94.5t98 34.5q61 0 97 -34t36 -95q0 -59 -35.5 -93t-97.5 -34t-97.5 34.5 t-35.5 92.5z" />
<glyph unicode="&#x402;" horiz-adv-x="1268" d="M27 1223v239h819v-239h-281v-297h201q207 0 303 -93t96 -292v-160q0 -399 -315 -399q-79 0 -148 24v227q49 -18 89 -18q57 0 80.5 42t23.5 126v131q0 92 -37.5 132t-126.5 40h-166v-686h-270v1223h-268z" />
<glyph unicode="&#x403;" horiz-adv-x="819" d="M129 0v1462h653v-235h-383v-1227h-270zM292 1579v27q41 53 95 151t77 150h318v-21q-24 -43 -119 -138.5t-184 -168.5h-187z" />
<glyph unicode="&#x404;" d="M84 729q0 356 136.5 555t377.5 199q81 0 156 -22.5t157 -76.5l-92 -221q-45 31 -96 56.5t-111 25.5q-101 0 -164 -102t-79 -283h379v-235h-381q23 -406 258 -406q116 0 243 74v-242q-107 -71 -274 -71q-247 0 -378.5 195.5t-131.5 553.5z" />
<glyph unicode="&#x405;" horiz-adv-x="846" d="M68 55v269q164 -107 301 -107q78 0 117.5 43t39.5 117q0 73 -47 133.5t-155 134.5q-94 65 -142.5 124.5t-75 133.5t-26.5 172q0 188 104.5 298t280.5 110q168 0 323 -94l-90 -218q-48 28 -100.5 50t-112.5 22q-66 0 -101.5 -43.5t-35.5 -118.5q0 -74 42.5 -129 t148.5 -125q143 -96 199.5 -196t56.5 -228q0 -205 -103.5 -314t-298.5 -109q-191 0 -325 75z" />
<glyph unicode="&#x406;" horiz-adv-x="614" d="M178 0v1462h256v-1462h-256z" />
<glyph unicode="&#x407;" horiz-adv-x="614" d="M-24 1741q0 61 35 95t97 34t97.5 -35.5t35.5 -93.5q0 -57 -35.5 -92t-97.5 -35t-97 33.5t-35 93.5zM178 0v1462h256v-1462h-256zM374 1741q0 60 35 94.5t98 34.5q61 0 97 -34t36 -95q0 -59 -35.5 -93t-97.5 -34t-97.5 34.5t-35.5 92.5z" />
<glyph unicode="&#x408;" horiz-adv-x="530" d="M-154 -160q65 -20 123 -20q83 0 121.5 53t38.5 158v1431h272v-1417q0 -144 -48.5 -250t-137 -161.5t-201.5 -55.5q-106 0 -168 25v237z" />
<glyph unicode="&#x409;" horiz-adv-x="1552" d="M0 2v225q30 -12 74 -12q56 0 85.5 88t67 395t78.5 764h668v-581h67q457 0 457 -420q0 -218 -116.5 -339.5t-333.5 -121.5h-347v1223h-159q-45 -506 -90 -836q-30 -211 -108.5 -309t-209.5 -98q-81 0 -133 22zM973 236h65q185 0 185 215q0 102 -45.5 147t-153.5 45h-51 v-407z" />
<glyph unicode="&#x40a;" horiz-adv-x="1552" d="M129 0v1462h272v-581h301v581h273v-581h65q457 0 457 -420q0 -218 -116.5 -339.5t-333.5 -121.5h-345v641h-301v-641h-272zM975 236h63q185 0 185 215q0 102 -45.5 147t-153.5 45h-49v-407z" />
<glyph unicode="&#x40b;" horiz-adv-x="1278" d="M27 1223v239h821v-239h-283v-297h199q208 0 304.5 -93t96.5 -292v-541h-270v514q0 92 -37.5 132t-126.5 40h-166v-686h-270v1223h-268z" />
<glyph unicode="&#x40c;" horiz-adv-x="1083" d="M133 0v1462h270v-708l381 708h291l-401 -704l409 -758h-305l-375 741v-741h-270zM374 1579v27q41 53 95 151t77 150h318v-21q-24 -43 -119 -138.5t-184 -168.5h-187z" />
<glyph unicode="&#x40d;" horiz-adv-x="1282" d="M129 0v1462h252v-803q0 -125 -19 -247h11l446 1050h334v-1462h-250v801q0 148 23 260h-13l-448 -1061h-336zM325 1886v21h318q27 -60 80.5 -155.5t91.5 -145.5v-27h-187q-75 60 -176 160.5t-127 146.5z" />
<glyph unicode="&#x40e;" horiz-adv-x="971" d="M0 1462h285l186 -571q23 -79 29 -135h8l14 68l15 67l159 571h275l-326 -1034q-78 -245 -178.5 -346.5t-251.5 -101.5q-105 0 -176 28v242q73 -29 151 -29q120 0 185 223zM142 1903h221q11 -100 42.5 -135t98.5 -35q66 0 98.5 40t43.5 130h225q-20 -168 -109.5 -246 t-263.5 -78q-170 0 -255 76.5t-101 247.5z" />
<glyph unicode="&#x40f;" horiz-adv-x="1161" d="M129 0v1462h272v-1222h359v1222h272v-1462h-313v-418h-273v418h-317z" />
<glyph unicode="&#x410;" horiz-adv-x="1094" d="M0 0l362 1468h369l363 -1468h-273l-84 369h-381l-84 -369h-272zM410 610h276l-78 340q-7 31 -31.5 155.5t-29.5 166.5q-13 -86 -33 -189.5t-104 -472.5z" />
<glyph unicode="&#x411;" horiz-adv-x="997" d="M129 0v1462h694v-237h-422v-334h86q222 0 335.5 -107t113.5 -319q0 -222 -113.5 -343.5t-324.5 -121.5h-369zM401 236h84q177 0 177 219q0 105 -44.5 151.5t-150.5 46.5h-66v-417z" />
<glyph unicode="&#x412;" horiz-adv-x="1038" d="M129 0v1462h373q228 0 332 -88.5t104 -281.5q0 -127 -55 -212.5t-150 -103.5v-10q124 -31 179 -116t55 -226q0 -199 -106.5 -311.5t-291.5 -112.5h-440zM385 238h137q85 0 126.5 52t41.5 161q0 196 -172 196h-133v-409zM385 874h125q86 0 121 46t35 137t-40 130.5 t-126 39.5h-115v-353z" />
<glyph unicode="&#x413;" horiz-adv-x="819" d="M129 0v1462h653v-235h-383v-1227h-270z" />
<glyph unicode="&#x414;" horiz-adv-x="1225" d="M10 240h86q206 547 264 1222h668v-1222h166v-658h-264v418h-656v-418h-264v658zM379 240h377v983h-166q-25 -243 -80.5 -504.5t-130.5 -478.5z" />
<glyph unicode="&#x415;" horiz-adv-x="872" d="M129 0v1462h659v-235h-387v-348h359v-236h-359v-405h387v-238h-659z" />
<glyph unicode="&#x416;" horiz-adv-x="1493" d="M0 0l365 758l-359 704h279l333 -708v708h254v-708l334 708h281l-359 -702l365 -760h-295l-326 741v-741h-254v741l-323 -741h-295z" />
<glyph unicode="&#x417;" horiz-adv-x="991" d="M61 1327q99 85 201 120.5t227 35.5q181 0 289.5 -100.5t108.5 -266.5q0 -136 -80.5 -225.5t-231.5 -120.5v-8q164 -20 254.5 -109.5t90.5 -238.5q0 -202 -129.5 -318t-352.5 -116q-236 0 -368 69v238q148 -82 315 -82q262 0 262 229q0 104 -75.5 158.5t-223.5 54.5h-98 v223h88q145 0 214 50.5t69 156.5q0 85 -46 130.5t-133 45.5q-133 0 -252 -108z" />
<glyph unicode="&#x418;" horiz-adv-x="1282" d="M129 0v1462h252v-803q0 -125 -19 -247h11l446 1050h334v-1462h-250v801q0 148 23 260h-13l-448 -1061h-336z" />
<glyph unicode="&#x419;" horiz-adv-x="1282" d="M129 0v1462h252v-803q0 -125 -19 -247h11l446 1050h334v-1462h-250v801q0 148 23 260h-13l-448 -1061h-336zM277 1903h221q11 -100 42.5 -135t98.5 -35q66 0 98.5 40t43.5 130h225q-20 -168 -109.5 -246t-263.5 -78q-170 0 -255 76.5t-101 247.5z" />
<glyph unicode="&#x41a;" horiz-adv-x="1083" d="M133 0v1462h270v-708l381 708h291l-401 -704l409 -758h-305l-375 741v-741h-270z" />
<glyph unicode="&#x41b;" horiz-adv-x="1161" d="M0 2v225q30 -12 74 -12q56 0 85.5 88t67 395t78.5 764h727v-1462h-272v1223h-219q-45 -506 -90 -836q-30 -211 -108.5 -309t-209.5 -98q-81 0 -133 22z" />
<glyph unicode="&#x41c;" horiz-adv-x="1606" d="M129 0v1462h418l250 -1149h8l248 1149h424v-1462h-258v991q0 123 14 252h-8l-277 -1243h-297l-278 1245h-11q19 -144 19 -264v-981h-252z" />
<glyph unicode="&#x41d;" horiz-adv-x="1161" d="M129 0v1462h272v-581h359v581h272v-1462h-272v641h-359v-641h-272z" />
<glyph unicode="&#x41e;" horiz-adv-x="1219" d="M84 735q0 363 136 556.5t392 193.5q253 0 388 -194.5t135 -557.5t-136 -558t-389 -195q-254 0 -390 194.5t-136 560.5zM362 733q0 -250 63 -381t185 -131q246 0 246 512t-244 512q-124 0 -187 -130.5t-63 -381.5z" />
<glyph unicode="&#x41f;" horiz-adv-x="1161" d="M129 0v1462h903v-1462h-270v1223h-361v-1223h-272z" />
<glyph unicode="&#x420;" horiz-adv-x="981" d="M129 0v1462h371q426 0 426 -450q0 -233 -117.5 -357.5t-339.5 -124.5h-68v-530h-272zM401 766h52q100 0 149 55t49 180q0 115 -45 170.5t-139 55.5h-66v-461z" />
<glyph unicode="&#x421;" d="M84 729q0 356 136.5 555t379.5 199q80 0 153.5 -22t157.5 -77l-90 -221q-45 31 -96 56.5t-111 25.5q-117 0 -184.5 -137t-67.5 -381q0 -508 265 -508q116 0 243 74v-242q-107 -71 -274 -71q-247 0 -379.5 196.5t-132.5 552.5z" />
<glyph unicode="&#x422;" horiz-adv-x="885" d="M27 1223v239h831v-239h-280v-1223h-271v1223h-280z" />
<glyph unicode="&#x423;" horiz-adv-x="971" d="M0 1462h285l186 -571q23 -79 29 -135h8l14 68l15 67l159 571h275l-326 -1034q-78 -245 -178.5 -346.5t-251.5 -101.5q-105 0 -176 28v242q73 -29 151 -29q120 0 185 223z" />
<glyph unicode="&#x424;" horiz-adv-x="1430" d="M74 754q0 162 58 287t167 193.5t256 68.5h33v180h256v-180h37q226 0 350.5 -144t124.5 -397q0 -169 -59 -294.5t-171.5 -194t-271.5 -68.5h-10v-225h-256v225h-13q-239 0 -370 145t-131 404zM352 760q0 -165 59.5 -257.5t166.5 -92.5h10v686h-29q-100 0 -153.5 -88.5 t-53.5 -247.5zM844 410h8q108 0 166.5 92t58.5 258q0 163 -53.5 249.5t-153.5 86.5h-26v-686z" />
<glyph unicode="&#x425;" horiz-adv-x="969" d="M0 0l334 760l-309 702h274l193 -481l167 481h285l-309 -714l334 -748h-283l-209 524l-194 -524h-283z" />
<glyph unicode="&#x426;" horiz-adv-x="1229" d="M129 0v1462h272v-1222h359v1222h272v-1233h166v-647h-264v418h-805z" />
<glyph unicode="&#x427;" horiz-adv-x="1155" d="M125 862v600h272v-540q0 -105 31.5 -153t103.5 -48q60 0 113 20.5t109 55.5v665h272v-1462h-272v567q-140 -86 -283 -86q-165 0 -255.5 100.5t-90.5 280.5z" />
<glyph unicode="&#x428;" horiz-adv-x="1704" d="M129 0v1462h272v-1222h316v1222h270v-1222h316v1222h272v-1462h-1446z" />
<glyph unicode="&#x429;" horiz-adv-x="1772" d="M129 0v1462h272v-1222h316v1222h270v-1222h316v1222h270v-1233h166v-647h-264v418h-1346z" />
<glyph unicode="&#x42a;" horiz-adv-x="1155" d="M29 1223v239h546v-571h68q455 0 455 -426q0 -221 -117 -343t-332 -122h-346v1223h-274zM575 236h66q182 0 182 219q0 106 -44.5 152t-151.5 46h-52v-417z" />
<glyph unicode="&#x42b;" horiz-adv-x="1518" d="M129 0v1462h272v-571h70q455 0 455 -426q0 -221 -117 -343t-332 -122h-348zM401 236h68q182 0 182 219q0 106 -44.5 152t-151.5 46h-54v-417zM1116 0v1462h273v-1462h-273z" />
<glyph unicode="&#x42c;" horiz-adv-x="983" d="M129 0v1462h272v-571h70q455 0 455 -426q0 -221 -117 -343t-332 -122h-348zM401 236h68q182 0 182 219q0 106 -44.5 152t-151.5 46h-54v-417z" />
<glyph unicode="&#x42d;" d="M37 1384q72 47 146.5 74t168.5 27q245 0 378.5 -194.5t133.5 -551.5t-135.5 -558t-382.5 -201q-169 0 -274 71v242q125 -74 254 -74q233 0 256 406h-383v235h381q-26 385 -236 385q-99 0 -215 -82z" />
<glyph unicode="&#x42e;" horiz-adv-x="1677" d="M129 0v1462h272v-581h213q26 294 150.5 449t339.5 155q237 0 363 -195.5t126 -556.5q0 -362 -127 -557.5t-364 -195.5q-222 0 -348.5 169t-141.5 492h-211v-641h-272zM889 733q0 -512 213 -512t213 512t-211 512q-215 0 -215 -512z" />
<glyph unicode="&#x42f;" horiz-adv-x="1024" d="M4 0l279 639q-97 60 -141 151.5t-44 223.5q0 448 445 448h352v-1462h-272v569h-99l-227 -569h-293zM375 1020q0 -108 40.5 -162.5t137.5 -54.5h70v424h-66q-93 0 -137.5 -47.5t-44.5 -159.5z" />
<glyph unicode="&#x430;" horiz-adv-x="956" d="M55 328q0 176 96.5 261.5t288.5 94.5l148 6v80q0 156 -135 156q-100 0 -230 -78l-92 184q166 105 361 105q177 0 269.5 -101.5t92.5 -287.5v-748h-195l-53 152h-6q-59 -98 -122 -135t-159 -37q-123 0 -193.5 92t-70.5 256zM330 326q0 -138 98 -138q73 0 116.5 65.5 t43.5 174.5v94l-82 -4q-91 -5 -133.5 -52t-42.5 -140z" />
<glyph unicode="&#x431;" horiz-adv-x="1012" d="M74 645q0 380 108.5 580t354.5 272q128 36 370 70l31 -234l-177 -28q-169 -28 -252.5 -72.5t-125 -132t-49.5 -232.5h8q47 84 114 127t146 43q160 0 248 -129t88 -360q0 -268 -114 -418.5t-318 -150.5q-208 0 -320 173t-112 492zM346 659q0 -452 170 -452q150 0 150 315 q0 305 -136 305q-59 0 -110 -47.5t-74 -120.5z" />
<glyph unicode="&#x432;" horiz-adv-x="991" d="M113 0v1114h389q405 0 405 -289q0 -94 -55.5 -156.5t-161.5 -80.5v-8q117 -15 183.5 -80.5t66.5 -169.5q0 -160 -113 -245t-323 -85h-391zM379 199h104q181 0 181 147q0 71 -46 102t-139 31h-100v-280zM379 676h80q88 0 132 28.5t44 96.5q0 110 -146 110h-110v-235z" />
<glyph unicode="&#x433;" horiz-adv-x="729" d="M113 0v1114h579v-215h-313v-899h-266z" />
<glyph unicode="&#x434;" horiz-adv-x="1094" d="M29 209h67q80 161 127 394t60 511h637v-905h145v-606h-264v397h-508v-397h-264v606zM375 209h276v694h-131q-38 -432 -145 -694z" />
<glyph unicode="&#x435;" horiz-adv-x="942" d="M74 549q0 276 109 431t304 155q182 0 287 -132.5t105 -371.5v-142h-535q3 -149 61 -221.5t160 -72.5q130 0 266 81v-219q-128 -77 -307 -77q-209 0 -329.5 148.5t-120.5 420.5zM348 682h270q-2 122 -37 185t-96 63q-57 0 -94 -60.5t-43 -187.5z" />
<glyph unicode="&#x436;" horiz-adv-x="1405" d="M0 0l317 586l-297 528h277l278 -534v534h256v-534l279 534h276l-299 -528l318 -586h-289l-285 573v-573h-256v573l-286 -573h-289z" />
<glyph unicode="&#x437;" horiz-adv-x="864" d="M55 53v223q139 -77 291 -77q182 0 182 135q0 72 -43.5 109.5t-144.5 37.5h-109v199h109q91 0 135.5 29t44.5 100q0 115 -153 115q-54 0 -100 -15.5t-99 -48.5l-96 193q139 82 309 82q177 0 282 -79t105 -216q0 -191 -211 -250v-8q116 -27 177 -99t61 -184 q0 -148 -112.5 -233.5t-311.5 -85.5q-92 0 -175.5 20.5t-140.5 52.5z" />
<glyph unicode="&#x438;" horiz-adv-x="1137" d="M113 0v1114h247v-516q0 -96 -24 -319l362 835h326v-1114h-248v524q0 118 23 318l-363 -842h-323z" />
<glyph unicode="&#x439;" horiz-adv-x="1137" d="M113 0v1114h247v-516q0 -96 -24 -319l362 835h326v-1114h-248v524q0 118 23 318l-363 -842h-323zM204 1565h221q11 -100 42.5 -135t98.5 -35q66 0 98.5 40t43.5 130h225q-20 -168 -109.5 -246t-263.5 -78q-170 0 -255 76.5t-101 247.5z" />
<glyph unicode="&#x43a;" horiz-adv-x="965" d="M113 0v1114h266v-532l285 532h280l-305 -528l324 -586h-293l-291 573v-573h-266z" />
<glyph unicode="&#x43b;" horiz-adv-x="1032" d="M0 4v219q30 -10 61 -10q84 0 131 214.5t72 686.5h656v-1114h-267v899h-149q-20 -339 -64.5 -538t-119 -289t-197.5 -90q-75 0 -123 22z" />
<glyph unicode="&#x43c;" horiz-adv-x="1374" d="M113 0v1114h383l135 -520q44 -174 53 -324q4 51 21.5 143t39.5 181l138 520h381v-1114h-238v905q-29 -162 -82 -364l-145 -541h-226l-145 543q-47 175 -82 362v-905h-233z" />
<glyph unicode="&#x43d;" horiz-adv-x="1059" d="M113 0v1114h266v-434h301v434h268v-1114h-268v467h-301v-467h-266z" />
<glyph unicode="&#x43e;" horiz-adv-x="1012" d="M74 559q0 271 115 423.5t319 152.5q197 0 313.5 -155.5t116.5 -420.5q0 -274 -116 -426.5t-318 -152.5q-128 0 -226 70t-151 201.5t-53 307.5zM346 559q0 -174 38 -263t122 -89q160 0 160 352q0 175 -38.5 261.5t-121.5 86.5q-84 0 -122 -86.5t-38 -261.5z" />
<glyph unicode="&#x43f;" horiz-adv-x="1061" d="M113 0v1114h835v-1114h-268v899h-301v-899h-266z" />
<glyph unicode="&#x440;" horiz-adv-x="1016" d="M113 -492v1606h206l46 -145h12q83 166 241 166q152 0 238 -150.5t86 -425.5q0 -271 -89 -425t-243 -154q-72 0 -127.5 32.5t-103.5 114.5h-14q16 -136 16 -164v-455h-268zM379 561q0 -184 35 -268t116 -84q140 0 140 354q0 174 -34.5 260t-107.5 86q-78 0 -112.5 -72.5 t-36.5 -240.5v-35z" />
<glyph unicode="&#x441;" horiz-adv-x="760" d="M74 551q0 294 98.5 439t304.5 145q62 0 130 -18t122 -52l-76 -207q-83 49 -147 49q-85 0 -122.5 -88.5t-37.5 -265.5q0 -173 37 -258.5t121 -85.5q100 0 209 70v-234q-105 -65 -232 -65q-199 0 -303 145t-104 426z" />
<glyph unicode="&#x442;" horiz-adv-x="836" d="M37 899v215h762v-215h-248v-899h-266v899h-248z" />
<glyph unicode="&#x443;" horiz-adv-x="913" d="M0 1114h276l154 -629q23 -84 37 -235h6q1 24 9 85.5t13 96.5t138 682h280l-319 -1194q-58 -220 -154 -316t-256 -96q-79 0 -141 17v223q41 -12 92 -12q134 0 176 176l19 70z" />
<glyph unicode="&#x444;" horiz-adv-x="1337" d="M74 559q0 273 124.5 422.5t348.5 153.5v421h244v-421q230 -4 351.5 -151.5t121.5 -424.5q0 -272 -124 -424.5t-349 -154.5v-472h-244v472q-221 2 -347 154t-126 425zM334 559q0 -172 56.5 -267.5t156.5 -98.5v729q-100 -3 -156.5 -96.5t-56.5 -266.5zM791 193 q99 2 156 99.5t57 266.5q0 173 -55.5 266.5t-157.5 96.5v-729z" />
<glyph unicode="&#x445;" horiz-adv-x="889" d="M14 0l291 569l-278 545h276l148 -340l137 340h274l-280 -545l292 -569h-278l-158 356l-147 -356h-277z" />
<glyph unicode="&#x446;" horiz-adv-x="1120" d="M113 0v1114h266v-899h299v899h268v-905h150v-606h-265v397h-718z" />
<glyph unicode="&#x447;" horiz-adv-x="1036" d="M102 678v436h267v-414q0 -77 25 -112t79 -35q56 0 98.5 23t85.5 57v481h269v-1114h-269v451q-138 -107 -276 -107q-137 0 -208 84t-71 250z" />
<glyph unicode="&#x448;" horiz-adv-x="1532" d="M113 0v1114h266v-899h252v899h268v-899h252v899h268v-1114h-1306z" />
<glyph unicode="&#x449;" horiz-adv-x="1593" d="M113 0v1114h266v-899h252v899h268v-899h252v899h268v-905h150v-606h-264v397h-1192z" />
<glyph unicode="&#x44a;" horiz-adv-x="1147" d="M37 899v215h524v-436h92q223 0 328.5 -81t105.5 -245q0 -352 -442 -352h-352v899h-256zM561 199h78q85 0 130.5 33.5t45.5 113.5q0 71 -43.5 102t-136.5 31h-74v-280z" />
<glyph unicode="&#x44b;" horiz-adv-x="1425" d="M113 0v1114h266v-436h80q221 0 326.5 -81t105.5 -245q0 -352 -440 -352h-338zM379 199h63q85 0 130.5 33.5t45.5 113.5q0 71 -43.5 102t-136.5 31h-59v-280zM1047 0v1114h268v-1114h-268z" />
<glyph unicode="&#x44c;" horiz-adv-x="967" d="M113 0v1114h266v-436h94q223 0 328.5 -81t105.5 -245q0 -352 -442 -352h-352zM379 199h80q83 0 128.5 33.5t45.5 113.5q0 71 -42.5 102t-135.5 31h-76v-280z" />
<glyph unicode="&#x44d;" horiz-adv-x="879" d="M53 51v219q99 -48 153 -61.5t105 -13.5q95 0 152 71t67 201h-317v195h317q-3 130 -51.5 196t-136.5 66q-57 0 -104.5 -17t-104.5 -45l-74 199q144 74 291 74q455 0 455 -566q0 -282 -123 -435.5t-358 -153.5q-152 0 -271 71z" />
<glyph unicode="&#x44e;" horiz-adv-x="1448" d="M113 0v1114h266v-434h166q21 216 128.5 335.5t284.5 119.5q197 0 306.5 -150.5t109.5 -425.5t-109.5 -427t-310.5 -152q-178 0 -286 128.5t-125 358.5h-164v-467h-266zM811 559q0 -352 145 -352q76 0 111 89t35 263q0 175 -35 261.5t-111 86.5q-75 0 -110 -86.5 t-35 -261.5z" />
<glyph unicode="&#x44f;" horiz-adv-x="1012" d="M6 0l277 457q-201 80 -201 311q0 163 108.5 254.5t298.5 91.5h410v-1114h-266v420h-96l-230 -420h-301zM352 766q0 -150 166 -150h115v299h-137q-144 0 -144 -149z" />
<glyph unicode="&#x450;" horiz-adv-x="942" d="M74 549q0 276 109 431t304 155q182 0 287 -132.5t105 -371.5v-142h-535q3 -149 61 -221.5t160 -72.5q130 0 266 81v-219q-128 -77 -307 -77q-209 0 -329.5 148.5t-120.5 420.5zM142 1548v21h318q27 -60 80.5 -155.5t91.5 -145.5v-27h-187q-75 60 -176 160.5t-127 146.5z M348 682h270q-2 122 -37 185t-96 63q-57 0 -94 -60.5t-43 -187.5z" />
<glyph unicode="&#x451;" horiz-adv-x="942" d="M74 549q0 276 109 431t304 155q182 0 287 -132.5t105 -371.5v-142h-535q3 -149 61 -221.5t160 -72.5q130 0 266 81v-219q-128 -77 -307 -77q-209 0 -329.5 148.5t-120.5 420.5zM156 1403q0 61 35 95t97 34t97.5 -35.5t35.5 -93.5q0 -57 -35.5 -92t-97.5 -35t-97 33.5 t-35 93.5zM348 682h270q-2 122 -37 185t-96 63q-57 0 -94 -60.5t-43 -187.5zM554 1403q0 60 35 94.5t98 34.5q61 0 97 -34t36 -95q0 -59 -35.5 -93t-97.5 -34t-97.5 34.5t-35.5 92.5z" />
<glyph unicode="&#x452;" horiz-adv-x="1051" d="M0 1204v187h125v165h266v-165h244v-187h-244v-57q0 -87 -12 -227h14q37 81 100.5 123t145.5 42q153 0 231 -99t78 -290v-825q0 -174 -80.5 -268.5t-226.5 -94.5q-86 0 -141 25v221q46 -18 88 -18q47 0 69.5 41.5t22.5 128.5v721q0 231 -123 231q-87 0 -126.5 -84.5 t-39.5 -267.5v-506h-266v1204h-125z" />
<glyph unicode="&#x453;" horiz-adv-x="729" d="M113 0v1114h579v-215h-313v-899h-266zM236 1241v27q41 53 95 151t77 150h318v-21q-24 -43 -119 -138.5t-184 -168.5h-187z" />
<glyph unicode="&#x454;" horiz-adv-x="879" d="M74 547q0 289 115.5 438.5t340.5 149.5q154 0 295 -76l-77 -203q-57 31 -106.5 49.5t-104.5 18.5q-175 0 -191 -262h320v-195h-320q18 -272 193 -272q75 0 135.5 20.5t122.5 54.5v-219q-131 -71 -275 -71q-228 0 -338 140t-110 427z" />
<glyph unicode="&#x455;" horiz-adv-x="766" d="M61 45v231q55 -38 128.5 -63t129.5 -25q62 0 94.5 30.5t32.5 80.5q0 51 -34 89t-125 93q-121 72 -173.5 153.5t-52.5 192.5q0 142 97.5 225t267.5 83q148 0 279 -78l-87 -191q-107 58 -188 58q-51 0 -76.5 -27t-25.5 -66q0 -45 31.5 -80t117.5 -87q104 -63 146 -107 t65 -100t23 -131q0 -163 -95.5 -254.5t-281.5 -91.5q-165 0 -273 65z" />
<glyph unicode="&#x456;" horiz-adv-x="496" d="M104 1405q0 66 38.5 104.5t107.5 38.5q65 0 104 -38.5t39 -104.5q0 -68 -40 -105.5t-103 -37.5q-66 0 -106 37.5t-40 105.5zM115 0v1114h266v-1114h-266z" />
<glyph unicode="&#x457;" horiz-adv-x="496" d="M-79 1403q0 61 35 95t97 34t97.5 -35.5t35.5 -93.5q0 -57 -35.5 -92t-97.5 -35t-97 33.5t-35 93.5zM115 0v1114h266v-1114h-266zM319 1403q0 60 35 94.5t98 34.5q61 0 97 -34t36 -95q0 -59 -35.5 -93t-97.5 -34t-97.5 34.5t-35.5 92.5z" />
<glyph unicode="&#x458;" horiz-adv-x="500" d="M-59 -246q46 -18 86 -18q94 0 94 170v1208h266v-1243q0 -174 -80.5 -268.5t-226.5 -94.5q-84 0 -139 25v221zM111 1405q0 66 38.5 104.5t106.5 38.5q67 0 105 -39t38 -104q0 -67 -39 -105t-104 -38t-105 37t-40 106z" />
<glyph unicode="&#x459;" horiz-adv-x="1509" d="M0 4v219q30 -10 61 -10q84 0 131 214.5t72 686.5h658v-436h94q223 0 328.5 -81t105.5 -245q0 -352 -442 -352h-355v899h-149q-20 -339 -64.5 -538t-119 -289t-197.5 -90q-75 0 -123 22zM922 199h79q85 0 130 33.5t45 113.5q0 71 -43 102t-136 31h-75v-280z" />
<glyph unicode="&#x45a;" horiz-adv-x="1505" d="M113 0v1114h266v-434h268v434h268v-436h97q221 0 327.5 -81t106.5 -245q0 -352 -442 -352h-357v467h-268v-467h-266zM915 199h80q85 0 130.5 33.5t45.5 113.5q0 71 -43 102t-137 31h-76v-280z" />
<glyph unicode="&#x45b;" horiz-adv-x="1038" d="M-12 1204v187h125v165h266v-165h246v-187h-246l-6 -194l-6 -90h14q37 81 100.5 123t145.5 42q153 0 231 -99t78 -290v-696h-268v627q0 231 -123 231q-87 0 -126.5 -84.5t-39.5 -267.5v-506h-266v1204h-125z" />
<glyph unicode="&#x45c;" horiz-adv-x="965" d="M113 0v1114h266v-532l285 532h280l-305 -528l324 -586h-293l-291 573v-573h-266zM379 1241v27q41 53 95 151t77 150h318v-21q-24 -43 -119 -138.5t-184 -168.5h-187z" />
<glyph unicode="&#x45d;" horiz-adv-x="1137" d="M113 0v1114h247v-516q0 -96 -24 -319l362 835h326v-1114h-248v524q0 118 23 318l-363 -842h-323zM212 1548v21h318q27 -60 80.5 -155.5t91.5 -145.5v-27h-187q-75 60 -176 160.5t-127 146.5z" />
<glyph unicode="&#x45e;" horiz-adv-x="913" d="M0 1114h276l154 -629q23 -84 37 -235h6q1 24 9 85.5t13 96.5t138 682h280l-319 -1194q-58 -220 -154 -316t-256 -96q-79 0 -141 17v223q41 -12 92 -12q134 0 176 176l19 70zM93 1565h221q11 -100 42.5 -135t98.5 -35q66 0 98.5 40t43.5 130h225q-20 -168 -109.5 -246 t-263.5 -78q-170 0 -255 76.5t-101 247.5z" />
<glyph unicode="&#x45f;" horiz-adv-x="1059" d="M113 0v1114h266v-899h299v899h268v-1114h-284v-397h-265v397h-284z" />
<glyph unicode="&#x460;" horiz-adv-x="1700" d="M86 768q0 334 120.5 523.5t336.5 189.5q69 0 140 -29t124 -78l-98 -188q-79 65 -158 65q-91 0 -145 -121.5t-54 -363.5q0 -257 65 -397t187 -140q54 0 111 64v412h266v-412q49 -64 115 -64q122 0 187 140.5t65 396.5q0 242 -54 363.5t-145 121.5q-43 0 -81.5 -13.5 t-80.5 -51.5l-94 188q50 46 122.5 76.5t141.5 30.5q217 0 337 -188.5t120 -524.5q0 -372 -127 -580t-357 -208q-94 0 -158.5 28.5t-119.5 89.5h-8q-57 -63 -120.5 -90.5t-152.5 -27.5q-231 0 -358 206.5t-127 581.5z" />
<glyph unicode="&#x461;" horiz-adv-x="1462" d="M0 1114h276l150 -698q12 -48 23 -166h8q28 138 41 182l125 395l-60 287h260l115 -659l31 -205h8q92 170 131 374.5t39 489.5h262q0 -350 -86 -623t-262 -491h-264l-84 395l-117 -395h-307z" />
<glyph unicode="&#x462;" horiz-adv-x="1063" d="M6 1124v215h213v217h273v-217h239v-215h-239v-233h65q213 0 330 -114.5t117 -325.5q0 -222 -116 -336.5t-343 -114.5h-326v1124h-213zM492 236h53q89 0 136.5 49t47.5 166q0 107 -45.5 154.5t-157.5 47.5h-34v-417z" />
<glyph unicode="&#x463;" horiz-adv-x="1065" d="M2 899v215h203v205h268v-205h229v-215h-229v-221h143q388 0 388 -326q0 -175 -100 -263.5t-290 -88.5h-409v899h-203zM473 199h131q127 0 127 147q0 71 -32 102t-97 31h-129v-280z" />
<glyph unicode="&#x464;" horiz-adv-x="1397" d="M129 0v1462h272v-581h134q27 291 160 446.5t347 155.5q95 0 170.5 -26.5t147.5 -74.5l-90 -221q-121 84 -213 84q-91 0 -156.5 -92t-87.5 -272h385v-240h-391q23 -422 262 -422q115 0 250 76v-242q-110 -73 -281 -73q-230 0 -361.5 171.5t-148.5 489.5h-127v-641h-272z " />
<glyph unicode="&#x465;" horiz-adv-x="1309" d="M113 0v1114h266v-434h137q28 228 144 341.5t309 113.5q153 0 286 -72l-75 -205q-56 28 -105 46t-100 18q-160 0 -189 -242h322v-213h-324q11 -137 55.5 -204.5t131.5 -67.5q72 0 132.5 21.5t123.5 55.5v-221q-131 -71 -269 -71q-211 0 -320.5 120t-125.5 367h-133v-467 h-266z" />
<glyph unicode="&#x466;" horiz-adv-x="1149" d="M0 0l418 1466h311l420 -1466h-264l-166 641h-35v-641h-217v641h-37l-166 -641h-264zM483 846h179l-33 123q-31 110 -58 243q-7 -37 -17 -83t-71 -283z" />
<glyph unicode="&#x467;" horiz-adv-x="1014" d="M2 0l348 1114h309l353 -1114h-250l-115 428h-41v-428h-198v428h-41l-117 -428h-248zM422 614h174l-43 138l-43 168h-8q-23 -103 -80 -306z" />
<glyph unicode="&#x468;" horiz-adv-x="1604" d="M129 0v1462h264v-581h312l167 585h310l420 -1466h-265l-163 641h-37v-641h-217v641h-37l-166 -641h-264l184 641h-244v-641h-264zM936 846h180q-78 275 -90 366q-19 -104 -90 -366z" />
<glyph unicode="&#x469;" horiz-adv-x="1427" d="M113 0v1114h252v-467h256l145 467h309l350 -1114h-247l-115 426h-41v-426h-199v426h-43l-114 -426h-248l139 444h-192v-444h-252zM838 612h174l-45 142q-5 14 -41 166h-8l-10 -44l-29 -122z" />
<glyph unicode="&#x46a;" horiz-adv-x="1280" d="M41 0l106 453q34 139 67.5 211.5t81 112.5t134.5 65l-283 485v135h990v-135l-291 -485q92 -26 140 -67.5t81.5 -115t65.5 -206.5l106 -453h-250l-88 397q-60 273 -121 273h-8v-670h-264v670h-8q-28 0 -60 -65t-63 -208l-86 -397h-250zM446 1257l195 -337l195 337h-390z " />
<glyph unicode="&#x46b;" horiz-adv-x="1026" d="M23 0l88 344q29 118 77 193.5t134 107.5l-224 367v102h838v-102l-229 -369q79 -29 128.5 -97.5t82.5 -201.5l86 -344h-205l-80 338q-41 164 -88 164h-8v-502h-215v502h-9q-14 0 -41 -37.5t-49 -126.5l-80 -338h-206zM367 936l147 -262l148 262h-295z" />
<glyph unicode="&#x46c;" horiz-adv-x="1690" d="M129 0v1462h264v-581h441l-261 446v135h990v-135l-291 -485q114 -33 176.5 -118.5t107.5 -270.5l109 -453h-250l-88 397q-33 153 -60.5 208t-68.5 65v-670h-264v670q-44 -15 -73.5 -77t-57.5 -196l-86 -397h-252l108 453q34 135 74 204h-254v-657h-264zM870 1257 l195 -337l197 337h-392z" />
<glyph unicode="&#x46d;" horiz-adv-x="1442" d="M113 0v1114h241v-434h361l-203 332v102h838v-102l-226 -369q79 -30 127.5 -100t81.5 -199l86 -344h-207l-79 338q-20 86 -38.5 125t-47.5 39h-9v-502h-217v502h-8q-24 0 -48 -45t-40 -119l-80 -338h-209l90 348q15 62 37 119h-209v-467h-241zM782 936l148 -262l147 262 h-295z" />
<glyph unicode="&#x46e;" horiz-adv-x="1016" d="M63 -117q0 165 91 243.5t270 78.5h8q238 0 238 229q0 213 -293 213h-129v223h117q143 0 210.5 49.5t67.5 157.5q0 82 -41.5 129t-122.5 47q-76 0 -138 -26t-130 -88l-127 184q127 114 276 147q-58 101 -96 152l-78 102v21l160 4h12q51 -50 140 -170q65 110 121 151.5 t122 41.5q60 0 111 -19v-151q-38 22 -80 22q-36 0 -74 -43.5t-59 -105.5q126 -30 202.5 -124t76.5 -223q0 -142 -81.5 -235.5t-228.5 -126.5q155 -24 244.5 -115.5t89.5 -234.5q0 -201 -123 -318.5t-344 -117.5q-84 0 -116.5 -21.5t-32.5 -79.5q0 -90 86 -90q64 0 139 5 l113 5q115 0 147 -43v-223q-33 29 -69.5 40t-92.5 11q-58 0 -144 -5q-87 -5 -143 -5q-142 0 -220.5 82.5t-78.5 226.5z" />
<glyph unicode="&#x46f;" horiz-adv-x="866" d="M8 -125q0 166 86.5 245t263.5 79t177 139q0 143 -195 143h-104v199h96q94 0 143 27.5t49 99.5q0 117 -141 117q-53 0 -107.5 -18t-125.5 -58l-95 199q110 55 189 73q-99 155 -144 211v21h168q72 -61 146 -160q64 106 119.5 145t117.5 39q43 0 107 -24v-142q-35 19 -84 19 q-52 0 -103 -117q96 -36 148.5 -108t52.5 -164q0 -86 -51 -149.5t-148 -96.5v-10q118 -39 171 -103t53 -159q0 -164 -110 -253t-312 -89q-51 0 -80.5 -10t-42 -29.5t-12.5 -59.5q0 -46 21.5 -67t74.5 -21q59 0 126 5l99 5q112 0 137 -45v-221q-34 32 -70.5 41.5t-76.5 9.5 q-63 0 -127 -4t-139 -4q-136 0 -206.5 74t-70.5 221z" />
<glyph unicode="&#x470;" horiz-adv-x="1452" d="M94 979v483h256v-479q0 -168 53.5 -240.5t174.5 -72.5h20v792h256v-792h20q118 0 173 75.5t55 233.5v483h254v-479q0 -279 -117 -412t-356 -133h-29v-438h-256v438h-31q-237 0 -355 131.5t-118 409.5z" />
<glyph unicode="&#x471;" horiz-adv-x="1354" d="M102 492v622h258v-627q0 -146 51.5 -222.5t147.5 -76.5v1368h246v-1368h4q95 0 150 102.5t55 323.5q0 225 -62 500h256q64 -283 64 -508q0 -624 -467 -624v-474h-246v474q-224 0 -340.5 126.5t-116.5 383.5z" />
<glyph unicode="&#x472;" horiz-adv-x="1219" d="M84 735q0 363 136 556.5t392 193.5q253 0 388 -194.5t135 -557.5t-136 -558t-389 -195q-254 0 -390 194.5t-136 560.5zM365 629q10 -197 72.5 -302.5t172.5 -105.5q111 0 172.5 105.5t71.5 302.5h-489zM369 868h483q-34 377 -240 377q-106 0 -167.5 -96.5t-75.5 -280.5z " />
<glyph unicode="&#x473;" horiz-adv-x="1012" d="M74 559q0 271 115 423.5t319 152.5q197 0 313.5 -155.5t116.5 -420.5q0 -274 -116 -426.5t-318 -152.5q-128 0 -226 70t-151 201.5t-53 307.5zM348 463q18 -256 158 -256q71 0 109 64t49 192h-316zM350 662h312q-11 123 -48 184t-108 61q-138 0 -156 -245z" />
<glyph unicode="&#x474;" horiz-adv-x="1126" d="M0 1462h274l191 -891q32 -169 51 -329q8 68 27 182.5t26 146.5l107 496q47 224 117.5 316t189.5 92q54 0 96.5 -13t65.5 -28v-224q-29 14 -50.5 20.5t-52.5 6.5q-37 0 -61.5 -49t-44.5 -135l-246 -1053h-348z" />
<glyph unicode="&#x475;" d="M0 1114h276l142 -645q16 -75 27 -201l6 -57h8q4 93 37 260l71 334q36 167 104 242t181 75q71 0 127 -30v-218q-20 11 -35.5 17t-40.5 6q-26 0 -44.5 -26.5t-33.5 -84.5l-202 -786h-332z" />
<glyph unicode="&#x476;" horiz-adv-x="1126" d="M0 1462h274l191 -891q32 -169 51 -329q8 68 27 182.5t26 146.5l107 496q47 224 117.5 316t189.5 92q54 0 96.5 -13t65.5 -28v-224q-29 14 -50.5 20.5t-52.5 6.5q-37 0 -61.5 -49t-44.5 -135l-246 -1053h-348zM16 1886v21h281q34 -75 88.5 -167.5t85.5 -133.5v-27h-150 q-75 60 -176 160.5t-129 146.5zM405 1886v21h283q33 -72 83 -158.5t91 -142.5v-27h-150q-78 62 -178.5 161t-128.5 146z" />
<glyph unicode="&#x477;" d="M-35 1548v21h281q34 -75 88.5 -167.5t85.5 -133.5v-27h-150q-75 60 -176 160.5t-129 146.5zM0 1114h276l142 -645q16 -75 27 -201l6 -57h8q4 93 37 260l71 334q36 167 104 242t181 75q71 0 127 -30v-218q-20 11 -35.5 17t-40.5 6q-26 0 -44.5 -26.5t-33.5 -84.5 l-202 -786h-332zM354 1548v21h283q33 -72 83 -158.5t91 -142.5v-27h-150q-78 62 -178.5 161t-128.5 146z" />
<glyph unicode="&#x478;" horiz-adv-x="2093" d="M84 735q0 363 136 556.5t392 193.5q253 0 388 -194.5t135 -557.5t-136 -558t-389 -195q-254 0 -390 194.5t-136 560.5zM362 733q0 -250 63 -381t185 -131q246 0 246 512t-244 512q-124 0 -187 -130.5t-63 -381.5zM1180 1114h276l154 -629q23 -84 37 -235h6q1 24 9 85.5 t13 96.5t138 682h280l-319 -1194q-58 -220 -154 -316t-256 -96q-79 0 -141 17v223q41 -12 92 -12q134 0 176 176l19 70z" />
<glyph unicode="&#x479;" horiz-adv-x="1870" d="M74 559q0 271 115 423.5t319 152.5q197 0 313.5 -155.5t116.5 -420.5q0 -274 -116 -426.5t-318 -152.5q-128 0 -226 70t-151 201.5t-53 307.5zM346 559q0 -174 38 -263t122 -89q160 0 160 352q0 175 -38.5 261.5t-121.5 86.5q-84 0 -122 -86.5t-38 -261.5zM956 1114h276 l154 -629q23 -84 37 -235h6q1 24 9 85.5t13 96.5t138 682h280l-319 -1194q-58 -220 -154 -316t-256 -96q-79 0 -141 17v223q41 -12 92 -12q134 0 176 176l19 70z" />
<glyph unicode="&#x47a;" horiz-adv-x="1309" d="M84 735q0 315 113 506.5t327 231.5q13 66 46.5 89t84.5 23t85 -23t46 -89q213 -41 326 -235t113 -505t-112 -504.5t-322 -236.5q-26 -117 -136 -117q-112 0 -133 117q-211 40 -324.5 231t-113.5 512zM362 733q0 -397 177 -487q15 38 44 51.5t72 13.5q41 0 70.5 -13.5 t44.5 -51.5q176 90 176 487q0 192 -40.5 314.5t-131.5 169.5q-33 -68 -119 -68q-91 0 -118 68q-175 -91 -175 -484z" />
<glyph unicode="&#x47b;" horiz-adv-x="1083" d="M74 559q0 230 91 376t257 183q9 48 40 66t79 18q102 0 118 -84q166 -40 258.5 -188.5t92.5 -370.5q0 -225 -90 -372.5t-254 -186.5q-8 -53 -41 -81t-84 -28q-109 0 -125 111q-158 39 -250 185.5t-92 371.5zM346 559q0 -255 86 -330q14 34 38 50t71 16q78 0 108 -68 q88 73 88 332q0 240 -82 322q-12 -41 -37.5 -61.5t-76.5 -20.5t-77 20.5t-38 59.5q-80 -84 -80 -320z" />
<glyph unicode="&#x47c;" horiz-adv-x="1704" d="M86 768q0 338 119 525.5t336 187.5q69 0 141.5 -29t128.5 -78l-100 -190q-83 65 -162 65q-91 0 -142 -121t-51 -362q0 -261 65 -398t185 -137q56 0 124.5 44.5t119.5 119.5q47 -72 117.5 -118t130.5 -46q121 0 186.5 138.5t65.5 396.5q0 239 -52 361t-141 122 q-46 0 -86 -14t-82 -51l-96 190q50 46 126.5 76.5t143.5 30.5q219 0 337 -188t118 -525q0 -372 -127 -580t-358 -208q-88 0 -152 28t-131 90q-57 -63 -122.5 -90.5t-154.5 -27.5q-231 0 -359 207.5t-128 580.5zM524 1870v47q0 92 30.5 147.5t84.5 82t154 26.5 q57 0 113 -18.5t115.5 -41t126 -41t144.5 -18.5h15v-182h-17q-71 0 -128 8t-104 20.5t-147 51.5q-72 28 -114 28q-59 0 -89 -21.5t-30 -78.5v-10h-154zM743 1503v84q60 17 88.5 42.5t28.5 49.5q0 14 -11.5 24t-45.5 25q-58 24 -58 66q0 104 129 104q75 0 112.5 -42 t37.5 -113q0 -92 -76.5 -160t-204.5 -80z" />
<glyph unicode="&#x47d;" horiz-adv-x="1419" d="M74 565q0 285 96.5 427.5t294.5 142.5q125 0 229 -66l-67 -195q-45 23 -78 36.5t-70 13.5q-133 0 -133 -359q0 -179 41 -275.5t121 -96.5q92 0 203 145q106 -145 202 -145q78 0 119 93.5t41 278.5q0 359 -133 359q-37 0 -71 -13.5t-76 -36.5l-66 195q102 66 227 66 q199 0 295.5 -142.5t96.5 -427.5q0 -289 -106.5 -437t-307.5 -148q-135 0 -221 88q-88 -88 -222 -88q-204 0 -309.5 149.5t-105.5 435.5zM350 1556v48q0 92 30.5 147.5t84.5 82t153 26.5q58 0 114 -18.5t115.5 -41t126 -41t144.5 -18.5h15v-182h-17q-71 0 -128 8t-104 20.5 t-147 51.5q-72 28 -114 28q-59 0 -89 -21.5t-30 -78.5v-11h-154zM569 1190v84q60 17 88.5 42t28.5 50q0 19 -18 29t-39.5 20t-39.5 24t-18 42q0 104 129 104q75 0 112.5 -42t37.5 -113q0 -96 -80 -163.5t-201 -76.5z" />
<glyph unicode="&#x47e;" horiz-adv-x="1700" d="M86 768q0 334 120.5 523.5t336.5 189.5q69 0 140 -29t124 -78l-98 -188q-79 65 -158 65q-91 0 -145 -121.5t-54 -363.5q0 -257 65 -397t187 -140q54 0 111 64v412h266v-412q49 -64 115 -64q122 0 187 140.5t65 396.5q0 242 -54 363.5t-145 121.5q-43 0 -81.5 -13.5 t-80.5 -51.5l-94 188q50 46 122.5 76.5t141.5 30.5q217 0 337 -188.5t120 -524.5q0 -372 -127 -580t-357 -208q-94 0 -158.5 28.5t-119.5 89.5h-8q-57 -63 -120.5 -90.5t-152.5 -27.5q-231 0 -358 206.5t-127 581.5zM448 1739v88h828v-88l-80 -162h-33l-49 93h-186l-50 -93 h-32l-50 93h-188l-47 -93h-33z" />
<glyph unicode="&#x47f;" horiz-adv-x="1462" d="M0 1114h276l150 -698q12 -48 23 -166h8q28 138 41 182l125 395l-60 287h260l115 -659l31 -205h8q92 170 131 374.5t39 489.5h262q0 -350 -86 -623t-262 -491h-264l-84 395l-117 -395h-307zM291 1374v88h828v-88l-80 -162h-33l-49 93h-186l-50 -93h-32l-50 93h-188 l-47 -93h-33z" />
<glyph unicode="&#x480;" horiz-adv-x="946" d="M84 729q0 356 136.5 555t377.5 199q80 0 153.5 -22t157.5 -77l-90 -221q-45 31 -96 56.5t-111 25.5q-117 0 -183.5 -136t-66.5 -382q0 -508 261 -508q87 0 172 41v-752h-271v478q-209 0 -324.5 195.5t-115.5 547.5z" />
<glyph unicode="&#x481;" horiz-adv-x="760" d="M74 551q0 294 99.5 439t303.5 145q68 0 134.5 -19.5t117.5 -50.5l-78 -207q-78 49 -145 49q-85 0 -122.5 -88t-37.5 -266q0 -173 37 -258.5t121 -85.5q34 0 75.5 9.5t69.5 25.5v-736h-266v484q-152 32 -230.5 175.5t-78.5 383.5z" />
<glyph unicode="&#x482;" horiz-adv-x="1227" d="M94 547l70 123l287 -164l198 346l-284 164l71 125l285 -164l182 313l127 -73l-182 -316l287 -164l-74 -123l-283 164l-200 -346l284 -166l-71 -123l-285 164l-180 -313l-129 74l180 315z" />
<glyph unicode="&#x483;" horiz-adv-x="1106" d="M166 1274q0 56 24.5 84t81.5 28h457q11 95 107 95q106 0 106 -113q0 -123 -108 -123h-457q-13 -94 -107 -94q-104 0 -104 123z" />
<glyph unicode="&#x484;" horiz-adv-x="1145" d="M221 1243v182h15q139 0 291 60q80 31 138 45t111 14q114 0 172 -66.5t58 -189.5v-47h-175v12q0 101 -100 101q-43 0 -114 -28q-96 -39 -144.5 -52.5t-106.5 -22t-128 -8.5h-17z" />
<glyph unicode="&#x485;" horiz-adv-x="1096" d="M420 1462q0 69 40.5 112.5t114.5 43.5q66 0 103 -27.5t37 -77.5q0 -27 -18 -40t-39.5 -21.5t-39.5 -17t-18 -27.5q0 -25 28.5 -54t88.5 -46v-84q-128 10 -212.5 78t-84.5 161z" />
<glyph unicode="&#x486;" horiz-adv-x="1096" d="M420 1223v84q60 17 88.5 46t28.5 54q0 19 -18 27.5t-39.5 17t-39.5 21.5t-18 40q0 50 36.5 77.5t102.5 27.5q72 0 114 -43.5t42 -112.5q-2 -94 -87 -161.5t-210 -77.5z" />
<glyph unicode="&#x488;" horiz-adv-x="2017" d="M37 459q5 90 55.5 142t153.5 52q92 0 149.5 -51t63.5 -143h-80q-5 45 -35 66.5t-98 21.5q-78 0 -103 -19.5t-30 -68.5h-76zM215 -41q5 90 55.5 142.5t153.5 52.5q92 0 149.5 -51t63.5 -144h-80q-5 45 -35 66.5t-98 21.5q-78 0 -103 -19.5t-30 -68.5h-76zM215 946 q5 90 55.5 142.5t153.5 52.5q92 0 149.5 -51t63.5 -144h-80q-5 45 -35 66.5t-98 21.5q-78 0 -103 -19.5t-30 -68.5h-76zM788 -319q5 89 55.5 141.5t153.5 52.5q92 0 149.5 -51t63.5 -143h-80q-5 45 -35 66.5t-98 21.5q-78 0 -103 -19.5t-30 -68.5h-76zM788 1231 q5 90 55.5 142t153.5 52q93 0 149.5 -50.5t63.5 -143.5h-80q-5 45 -35 66.5t-98 21.5q-78 0 -103 -19.5t-30 -68.5h-76zM1368 -41q5 90 55.5 142.5t153.5 52.5q92 0 149.5 -51t63.5 -144h-80q-5 45 -35 66.5t-98 21.5q-78 0 -103 -19.5t-30 -68.5h-76zM1368 946 q5 90 55.5 142.5t153.5 52.5q92 0 149.5 -51t63.5 -144h-80q-5 45 -35 66.5t-98 21.5q-78 0 -103 -19.5t-30 -68.5h-76zM1559 459q11 194 208 194q92 0 149.5 -51t63.5 -143h-79q-5 44 -35 66t-99 22q-78 0 -103 -20.5t-30 -67.5h-75z" />
<glyph unicode="&#x489;" horiz-adv-x="1950" d="M37 565v97q221 -53 350 -70v-139l-14 -11q-66 17 -161.5 52t-174.5 71zM233 -55q177 110 297 198l99 -98l-2 -16q-155 -89 -324 -152zM319 1202l68 70q123 -198 199 -297l-99 -98l-16 2q-40 68 -85.5 166.5t-66.5 156.5zM866 -385q53 221 70 350h139l10 -14 q-41 -161 -122 -336h-97zM866 1155q19 71 55.5 171t67.5 165h96q-50 -211 -69 -350h-139zM1321 1004l4 18q127 75 320 149l69 -71l-75 -48q-128 -81 -218 -149zM1364 92l98 98l17 -2q36 -60 80 -151.5t73 -167.5l-67 -70q-118 185 -201 293zM1559 520v137q2 0 10 5.5t8 7.5 q71 -19 165.5 -54t168.5 -69l-4 -98q-233 55 -348 71z" />
<glyph unicode="&#x48a;" horiz-adv-x="1393" d="M129 0v1462h252v-844q0 -125 -19 -247h11l446 1091h334v-1216h207l-172 -664h-320l185 418h-150v842q0 148 23 260h-13l-448 -1102h-336zM233 1929h242q7 -100 43 -143t121 -43q76 0 115.5 44t48.5 142h246q-16 -182 -119.5 -266t-296.5 -84q-198 0 -293 80t-107 270z " />
<glyph unicode="&#x48b;" horiz-adv-x="1210" d="M113 0v1114h247v-516q0 -96 -24 -319l362 835h326v-905h162l-142 -606h-270l135 397h-133v524q0 118 23 318l-114 -267l-249 -575h-323zM160 1591h243q7 -100 43 -143t121 -43q76 0 115.5 44t48.5 142h246q-19 -183 -121 -266.5t-295 -83.5q-199 0 -294.5 81t-106.5 269z " />
<glyph unicode="&#x48c;" horiz-adv-x="995" d="M29 1069v236h112v157h273v-157h194v-236h-194v-178h65q223 0 340 -106t117 -320q0 -220 -113.5 -342.5t-330.5 -122.5h-351v1069h-112zM414 236h67q181 0 181 219q0 104 -45 151t-154 47h-49v-417z" />
<glyph unicode="&#x48d;" horiz-adv-x="985" d="M4 1143v186h121v227h266v-227h240v-186h-240v-465h111q214 0 318 -81t104 -245q0 -352 -430 -352h-369v1143h-121zM391 199h96q79 0 121.5 33.5t42.5 113.5q0 71 -40.5 102t-127.5 31h-92v-280z" />
<glyph unicode="&#x48e;" horiz-adv-x="981" d="M129 0v1462h371q426 0 426 -450q0 -150 -50.5 -258.5t-144.5 -161.5l76 -172l-145 -64l-80 183q-47 -9 -113 -9h-68v-530h-272zM401 766h82l-55 123l145 61l45 -102q33 58 33 153q0 115 -45 170.5t-139 55.5h-66v-461z" />
<glyph unicode="&#x48f;" horiz-adv-x="1016" d="M113 -492v1606h206l46 -145h12q83 166 241 166q152 0 238 -150.5t86 -425.5q0 -217 -55.5 -355t-147.5 -192l66 -153l-131 -62l-82 185q-124 0 -213 145h-14q16 -136 16 -164v-455h-268zM379 561q0 -163 24.5 -241.5t83.5 -102.5l-51 125l133 59l56 -125q45 96 45 287 q0 174 -34.5 260t-107.5 86q-78 0 -112.5 -72.5t-36.5 -240.5v-35z" />
<glyph unicode="&#x490;" horiz-adv-x="844" d="M129 0v1462h414v307h264v-542h-408v-1227h-270z" />
<glyph unicode="&#x491;" horiz-adv-x="754" d="M113 0v1114h340v307h264v-522h-338v-899h-266z" />
<glyph unicode="&#x492;" horiz-adv-x="831" d="M14 604v238h127v620h654v-235h-383v-385h237v-238h-237v-604h-271v604h-127z" />
<glyph unicode="&#x493;" horiz-adv-x="741" d="M8 430v217h117v467h580v-213h-312v-254h205v-217h-205v-430h-268v430h-117z" />
<glyph unicode="&#x494;" horiz-adv-x="997" d="M129 0v1462h653v-235h-383v-426q15 4 52 4q140 0 260.5 -88.5t181.5 -236t61 -337.5q0 -198 -57 -346.5t-159.5 -228.5t-233.5 -80q-87 0 -148 11.5t-125 41.5v258q132 -59 230 -59q103 0 167 109.5t64 293.5q0 192 -70.5 298t-207.5 114h-15v-555h-270z" />
<glyph unicode="&#x495;" horiz-adv-x="862" d="M113 0v1114h577v-213h-311v-260h61q116 0 208 -70t143 -201.5t51 -303.5q0 -179 -49 -306.5t-139.5 -194.5t-213.5 -67q-114 0 -219 60v258q114 -78 193 -78q82 0 126 87.5t44 244.5q0 314 -187 325h-18v-395h-266z" />
<glyph unicode="&#x496;" horiz-adv-x="1575" d="M0 0l365 758l-359 704h279l333 -708v708h254v-708l334 708h281l-359 -702l254 -531h162v-647h-264v418h-82l-326 741v-741h-254v741l-323 -741h-295z" />
<glyph unicode="&#x497;" horiz-adv-x="1468" d="M0 0l317 586l-297 528h277l278 -534v534h256v-534l279 534h276l-299 -528l205 -377h154v-606h-264v397h-66l-285 573v-573h-256v573l-286 -573h-289z" />
<glyph unicode="&#x498;" horiz-adv-x="991" d="M61 1327q99 85 201 120.5t227 35.5q181 0 289.5 -100.5t108.5 -266.5q0 -136 -80.5 -225.5t-231.5 -120.5v-8q164 -20 254.5 -109.5t90.5 -238.5q0 -202 -129.5 -318t-352.5 -116q-236 0 -368 69v238q148 -82 315 -82q262 0 262 229q0 104 -75.5 158.5t-223.5 54.5h-98 v223h88q145 0 214 50.5t69 156.5q0 85 -46 130.5t-133 45.5q-133 0 -252 -108zM266 -297q61 -16 109 -16q35 0 57.5 21t22.5 63q0 52 -38 107.5t-108 121.5h168q99 -72 139 -133t40 -127q0 -100 -65.5 -161.5t-176.5 -61.5q-72 0 -148 22v164z" />
<glyph unicode="&#x499;" horiz-adv-x="864" d="M55 53v223q139 -77 291 -77q182 0 182 135q0 72 -43.5 109.5t-144.5 37.5h-109v199h109q91 0 135.5 29t44.5 100q0 115 -153 115q-54 0 -100 -15.5t-99 -48.5l-96 193q139 82 309 82q177 0 282 -79t105 -216q0 -191 -211 -250v-8q116 -27 177 -99t61 -184 q0 -148 -112.5 -233.5t-311.5 -85.5q-92 0 -175.5 20.5t-140.5 52.5zM206 -297q61 -16 109 -16q35 0 57.5 21t22.5 63q0 52 -38 107.5t-108 121.5h168q99 -72 139 -133t40 -127q0 -100 -65.5 -161.5t-176.5 -61.5q-72 0 -148 22v164z" />
<glyph unicode="&#x49a;" horiz-adv-x="1141" d="M129 0v1462h272v-723l95 219l249 504h291l-338 -631l250 -602h160v-647h-262v418h-98l-232 621l-115 -113v-508h-272z" />
<glyph unicode="&#x49b;" horiz-adv-x="1024" d="M113 0v1114h266v-536l285 536h280l-305 -528l207 -377h153v-606h-264v397h-65l-291 575v-575h-266z" />
<glyph unicode="&#x49c;" horiz-adv-x="1040" d="M129 0v1462h272v-725l48 111v452h116v-202l180 364h291l-338 -633l342 -829h-290l-185 481v-268h-116v350l-48 -47v-516h-272z" />
<glyph unicode="&#x49d;" horiz-adv-x="967" d="M113 0v1114h268v-536l39 73v363h108v-160l136 260h282l-309 -530l328 -584h-293l-144 285v-195h-108v406l-39 79v-575h-268z" />
<glyph unicode="&#x49e;" horiz-adv-x="1053" d="M33 1069v236h108v157h273v-157h125v-236h-125v-332q27 84 92 219l252 506h289l-336 -633l342 -829h-293l-238 625l-108 -109v-516h-273v1069h-108z" />
<glyph unicode="&#x49f;" horiz-adv-x="977" d="M12 1153v186h113v217h266v-217h225v-186h-225v-330l-12 -223h8l67 133l220 381h282l-282 -457l301 -657h-279l-200 471l-105 -94v-377h-266v1153h-113z" />
<glyph unicode="&#x4a0;" horiz-adv-x="1176" d="M4 1223v239h535v-725l92 219l252 506h288l-337 -633l342 -829h-291l-238 625l-108 -109v-516h-273v1223h-262z" />
<glyph unicode="&#x4a1;" horiz-adv-x="1145" d="M6 899v215h553v-536l283 536h282l-98 -167l-207 -361l324 -586h-293l-291 575v-575h-268v899h-285z" />
<glyph unicode="&#x4a2;" horiz-adv-x="1221" d="M129 0v1462h272v-581h359v581h272v-1233h156v-647h-262v418h-166v641h-359v-641h-272z" />
<glyph unicode="&#x4a3;" horiz-adv-x="1112" d="M113 0v1114h266v-434h301v434h268v-905h139v-606h-264v397h-143v467h-301v-467h-266z" />
<glyph unicode="&#x4a4;" horiz-adv-x="1296" d="M129 0v1462h272v-581h359v581h534v-239h-262v-1223h-272v641h-359v-641h-272z" />
<glyph unicode="&#x4a5;" horiz-adv-x="1233" d="M113 0v1114h266v-434h301v434h551v-215h-283v-899h-268v467h-301v-467h-266z" />
<glyph unicode="&#x4a6;" horiz-adv-x="1642" d="M129 0v1462h905v-661q22 4 60 4q141 0 262 -89.5t182 -236.5t61 -336q0 -199 -57 -347.5t-160.5 -228t-234.5 -79.5q-86 0 -145.5 11.5t-124.5 41.5v258q128 -59 227 -59q103 0 167 109.5t64 293.5q0 191 -68.5 296t-203.5 116h-29v-555h-270v1223h-363v-1223h-272z" />
<glyph unicode="&#x4a7;" horiz-adv-x="1444" d="M113 0v1114h835v-475l76 2q115 0 206.5 -71t142 -202.5t50.5 -301.5q0 -179 -49 -307t-139 -194.5t-211 -66.5q-118 0 -219 60v258q49 -35 101 -56.5t89 -21.5q83 0 127.5 84.5t44.5 247.5q0 319 -196 327l-23 -4v-393h-268v899h-301v-899h-266z" />
<glyph unicode="&#x4a8;" horiz-adv-x="1229" d="M84 713q0 381 134.5 576.5t397.5 195.5q53 0 115 -14t94 -31l-57 -234q-80 39 -152 39q-260 0 -260 -522q0 -255 65.5 -377.5t180.5 -122.5q13 0 19 4q-53 79 -86 206t-33 257q0 223 81 340t236 117q153 0 237.5 -123.5t84.5 -345.5q0 -305 -162 -514q25 -19 72 -19 t125 35v-233q-58 -31 -152 -31q-142 0 -250 92q-74 -28 -176 -28q-239 0 -376.5 195t-137.5 538zM748 674q0 -217 67 -344q36 61 58 151t22 189q0 126 -19 193t-53 67q-33 0 -54 -68.5t-21 -187.5z" />
<glyph unicode="&#x4a9;" horiz-adv-x="1049" d="M74 551q0 278 111.5 431t316.5 153q40 0 90 -11.5t86 -29.5l-49 -215q-87 28 -127 28q-86 0 -125 -87t-39 -277q0 -174 38.5 -255t104.5 -81q14 0 17 6q-39 76 -54.5 144t-15.5 155q0 171 70 259.5t204 88.5q125 0 198 -92.5t73 -259.5q0 -120 -33.5 -214t-93.5 -151 q16 -8 41 -8q40 0 108 25v-203q-58 -27 -133 -27q-114 0 -215 80q-64 -30 -166 -30q-185 0 -296 154t-111 417zM649 504q0 -131 51 -209q50 70 50 211q0 149 -48 149q-24 0 -38.5 -38.5t-14.5 -112.5z" />
<glyph unicode="&#x4aa;" d="M84 729q0 356 136.5 555t379.5 199q80 0 153.5 -22t157.5 -77l-90 -221q-45 31 -96 56.5t-111 25.5q-117 0 -184.5 -137t-67.5 -381q0 -508 265 -508q116 0 243 74v-242q-107 -71 -274 -71q-247 0 -379.5 196.5t-132.5 552.5zM393 -293q61 -16 109 -16q35 0 57.5 21 t22.5 63q0 52 -38 107.5t-108 121.5h168q99 -72 139 -133t40 -127q0 -100 -65.5 -161.5t-176.5 -61.5q-72 0 -148 22v164z" />
<glyph unicode="&#x4ab;" horiz-adv-x="760" d="M74 551q0 294 98.5 439t304.5 145q62 0 130 -18t122 -52l-76 -207q-83 49 -147 49q-85 0 -122.5 -88.5t-37.5 -265.5q0 -173 37 -258.5t121 -85.5q100 0 209 70v-234q-105 -65 -232 -65q-199 0 -303 145t-104 426zM247 -272q61 -16 109 -16q35 0 57.5 21t22.5 63 q0 52 -38 107.5t-108 121.5h168q99 -72 139 -133t40 -127q0 -100 -65.5 -161.5t-176.5 -61.5q-72 0 -148 22v164z" />
<glyph unicode="&#x4ac;" horiz-adv-x="885" d="M27 1223v239h831v-239h-280v-994h161v-647h-262v418h-170v1223h-280z" />
<glyph unicode="&#x4ad;" horiz-adv-x="836" d="M37 899v215h762v-215h-248v-690h149v-606h-264v397h-151v899h-248z" />
<glyph unicode="&#x4ae;" horiz-adv-x="961" d="M0 1462h287l194 -577l195 577h285l-347 -876v-586h-268v575z" />
<glyph unicode="&#x4af;" horiz-adv-x="911" d="M0 1114h274l144 -637q15 -74 27 -199l6 -57h8q5 127 35 256l143 637h274l-321 -1143v-463h-266v457z" />
<glyph unicode="&#x4b0;" horiz-adv-x="961" d="M0 1462h287l194 -577l195 577h285l-347 -876v-62h217v-239h-217v-285h-268v285h-217v239h217v51z" />
<glyph unicode="&#x4b1;" horiz-adv-x="911" d="M0 1114h274l144 -637q15 -74 27 -199l6 -57h8q5 127 35 256l143 637h274l-315 -1114h192v-211h-198v-281h-266v281h-203v211h192z" />
<glyph unicode="&#x4b2;" horiz-adv-x="1126" d="M0 0l334 760l-309 702h274l193 -481l167 481h285l-309 -714l231 -519h228v-647h-263v418h-145l-209 524l-194 -524h-283z" />
<glyph unicode="&#x4b3;" horiz-adv-x="1030" d="M14 0l291 569l-278 545h276l148 -340l137 340h274l-280 -545l184 -360h240v-606h-265v397h-145l-158 356l-147 -356h-277z" />
<glyph unicode="&#x4b4;" horiz-adv-x="1403" d="M27 1223v239h780v-239h-229v-983h358v1222h272v-1233h162v-647h-262v418h-803v1223h-278z" />
<glyph unicode="&#x4b5;" horiz-adv-x="1292" d="M37 899v215h717v-215h-199v-684h301v899h268v-905h144v-606h-264v397h-717v899h-250z" />
<glyph unicode="&#x4b6;" horiz-adv-x="1219" d="M125 862v600h272v-540q0 -105 31.5 -153t103.5 -48q60 0 113 20.5t109 55.5v665h272v-1233h162v-647h-264v418h-170v567q-140 -86 -283 -86q-165 0 -255.5 100.5t-90.5 280.5z" />
<glyph unicode="&#x4b7;" horiz-adv-x="1096" d="M102 678v436h267v-414q0 -77 25 -112t79 -35q56 0 98.5 23t85.5 57v481h269v-905h145v-606h-264v397h-150v451q-138 -107 -276 -107q-137 0 -208 84t-71 250z" />
<glyph unicode="&#x4b8;" horiz-adv-x="1155" d="M125 862v600h272v-538q0 -99 26.5 -148t88.5 -55v332h133v-312q63 25 109 56v665h272v-1462h-272v567q-63 -38 -109 -53v-334h-133v303l-20 -2h-21q-165 0 -255.5 100.5t-90.5 280.5z" />
<glyph unicode="&#x4b9;" horiz-adv-x="1036" d="M102 678v436h267v-414q0 -68 19 -102.5t61 -42.5l6 -2v262h125v-235q34 19 77 53v481h269v-1114h-269v451q-37 -33 -77 -52v-268h-125v221q-26 -8 -74 -8q-137 0 -208 84t-71 250z" />
<glyph unicode="&#x4ba;" horiz-adv-x="1145" d="M129 0v1462h272v-565q139 84 277 84q164 0 254 -99.5t90 -281.5v-600h-270v541q0 105 -30 152.5t-99 47.5q-60 0 -111.5 -19t-110.5 -56v-666h-272z" />
<glyph unicode="&#x4bb;" horiz-adv-x="1032" d="M113 0v1114h266v-446q75 54 139.5 77t134.5 23q138 0 209.5 -84.5t71.5 -247.5v-436h-268v412q0 78 -24.5 113.5t-78.5 35.5t-96.5 -23t-87.5 -57v-481h-266z" />
<glyph unicode="&#x4bc;" horiz-adv-x="1503" d="M10 893q0 107 47 190h213q-6 -10 -15 -48t-9 -68q0 -90 94 -90h27l2 12v14q33 282 170 432t356 150q259 0 391.5 -193t132.5 -583v-72h-782q13 -202 90 -310t203 -108q97 0 198 38t228 134v-270q-101 -75 -205.5 -108t-228.5 -33q-247 0 -393 172.5t-167 484.5h-45 q-152 2 -229.5 68.5t-77.5 187.5zM641 877h502q-2 186 -63.5 276t-184.5 90q-111 0 -179 -100.5t-75 -265.5z" />
<glyph unicode="&#x4bd;" horiz-adv-x="1178" d="M10 713q0 94 37 157h189q-23 -48 -23 -108q0 -80 92 -80h12l5 29q29 202 133 313t268 111q183 0 287 -133t104 -371v-142h-534q3 -149 61 -221.5t160 -72.5q133 0 266 81v-219q-127 -77 -307 -77q-197 0 -316.5 133t-132.5 376q-301 4 -301 224zM584 682h270 q-2 122 -37 185t-96 63q-121 0 -137 -248z" />
<glyph unicode="&#x4be;" horiz-adv-x="1503" d="M10 893q0 107 47 190h213q-6 -10 -15 -48t-9 -68q0 -90 94 -90h27l2 12v12q31 279 167.5 431.5t358.5 152.5q259 0 391.5 -193t132.5 -583v-72h-782q13 -202 90 -310t203 -108q97 0 198 38t228 134v-270q-152 -109 -312 -133v-406h-276v416q-179 49 -284 214.5 t-122 424.5h-45q-152 2 -229.5 68.5t-77.5 187.5zM641 877h502q-2 186 -63.5 276t-184.5 90q-111 0 -179 -100.5t-75 -265.5z" />
<glyph unicode="&#x4bf;" horiz-adv-x="1178" d="M10 713q0 94 37 157h189q-23 -48 -23 -108q0 -80 92 -80h12l2 16q27 207 132.5 322t271.5 115q183 0 287 -133t104 -371v-142h-534q3 -149 61 -221.5t160 -72.5q133 0 266 81v-219q-92 -56 -209 -71v-383h-264v405q-122 45 -197.5 164.5t-85.5 316.5q-301 4 -301 224z M584 682h270q-2 122 -37 185t-96 63q-121 0 -137 -248z" />
<glyph unicode="&#x4c0;" horiz-adv-x="614" d="M178 0v1462h256v-1462h-256z" />
<glyph unicode="&#x4c1;" horiz-adv-x="1493" d="M0 0l365 758l-359 704h279l333 -708v708h254v-708l334 708h281l-359 -702l365 -760h-295l-326 741v-741h-254v741l-323 -741h-295zM381 1903h221q11 -100 42.5 -135t98.5 -35q66 0 98.5 40t43.5 130h225q-20 -168 -109.5 -246t-263.5 -78q-170 0 -255 76.5t-101 247.5z " />
<glyph unicode="&#x4c2;" horiz-adv-x="1405" d="M0 0l317 586l-297 528h277l278 -534v534h256v-534l279 534h276l-299 -528l318 -586h-289l-285 573v-573h-256v573l-286 -573h-289zM338 1565h221q11 -100 42.5 -135t98.5 -35q66 0 98.5 40t43.5 130h225q-20 -168 -109.5 -246t-263.5 -78q-170 0 -255 76.5t-101 247.5z " />
<glyph unicode="&#x4c3;" horiz-adv-x="1165" d="M129 0v1462h272v-631q3 10 11.5 28.5t28 58.5t296.5 544h289l-410 -686q146 -6 254 -86.5t165 -223t57 -323.5q0 -198 -57.5 -346.5t-161.5 -228.5t-234 -80q-87 0 -147.5 11.5t-124.5 41.5v258q132 -59 229 -59q103 0 167 110.5t64 292.5q0 410 -315 410q-59 0 -111 -25 v-528h-272z" />
<glyph unicode="&#x4c4;" horiz-adv-x="989" d="M113 0v1114h266v-432l260 432h285l-342 -496q111 -9 195 -78t129.5 -191t45.5 -283q0 -179 -49.5 -307.5t-140 -194.5t-211.5 -66q-114 0 -219 60v258q41 -30 96.5 -54t95.5 -24q82 0 126 85t44 247q0 323 -200 323q-30 0 -64.5 -10.5t-50.5 -22.5v-360h-266z" />
<glyph unicode="&#x4c5;" horiz-adv-x="1270" d="M0 2v225q30 -12 74 -12q56 0 85.5 88t67 395t78.5 764h727v-1216h207l-172 -664h-319l184 418h-172v1223h-219q-45 -506 -90 -836q-30 -211 -108.5 -309t-209.5 -98q-81 0 -133 22z" />
<glyph unicode="&#x4c6;" horiz-adv-x="1106" d="M0 4v219q30 -10 61 -10q84 0 131 214.5t72 686.5h656v-905h161l-141 -606h-270q123 358 135 397h-152v899h-149q-20 -339 -64.5 -538t-119 -289t-197.5 -90q-75 0 -123 22z" />
<glyph unicode="&#x4c7;" horiz-adv-x="1161" d="M129 0v1462h272v-581h359v581h272v-1362q0 -279 -123 -445.5t-331 -166.5q-159 0 -273 53v258q133 -59 246 -59q100 0 154.5 100t54.5 289v512h-359v-641h-272z" />
<glyph unicode="&#x4c8;" horiz-adv-x="1059" d="M113 0v1114h266v-434h301v434h268v-1083q0 -253 -105.5 -393t-299.5 -140q-66 0 -117 15t-102 47v247q112 -69 196 -69q160 0 160 297v432h-301v-467h-266z" />
<glyph unicode="&#x4c9;" horiz-adv-x="1270" d="M129 0v1462h272v-581h359v581h272v-1216h207l-172 -664h-319l184 418h-172v641h-359v-641h-272z" />
<glyph unicode="&#x4ca;" horiz-adv-x="1133" d="M113 0v1114h266v-434h301v434h268v-905h160l-141 -606h-269l133 397h-151v467h-301v-467h-266z" />
<glyph unicode="&#x4cb;" horiz-adv-x="1155" d="M125 862v600h272v-540q0 -105 31.5 -153t103.5 -48q60 0 113 20.5t109 55.5v665h272v-1462h-182v-418h-262v647h172v338q-140 -86 -283 -86q-165 0 -255.5 100.5t-90.5 280.5z" />
<glyph unicode="&#x4cc;" horiz-adv-x="1036" d="M102 678v436h267v-414q0 -77 25 -112t79 -35q56 0 98.5 23t85.5 57v481h269v-1114h-154v-397h-264v606h149v242q-138 -107 -276 -107q-137 0 -208 84t-71 250z" />
<glyph unicode="&#x4cd;" horiz-adv-x="1714" d="M129 0v1462h418l250 -1149h8l19 90l229 1059h424v-1216h206l-172 -664h-319l184 418h-157v991q0 123 14 252h-8l-277 -1243h-297l-278 1245h-11q19 -144 19 -264v-981h-252z" />
<glyph unicode="&#x4ce;" horiz-adv-x="1448" d="M113 0v1114h383l135 -520q45 -183 53 -320q8 108 61 320l138 520h381v-905h159l-141 -606h-268l133 397h-121v905q-29 -162 -82 -364l-145 -541h-226l-145 543q-47 175 -82 362v-905h-233z" />
<glyph unicode="&#x4cf;" horiz-adv-x="614" d="M178 0v1462h256v-1462h-256z" />
<glyph unicode="&#x4d0;" horiz-adv-x="1094" d="M0 0l362 1468h369l363 -1468h-273l-84 369h-381l-84 -369h-272zM183 1903h221q11 -100 42.5 -135t98.5 -35q66 0 98.5 40t43.5 130h225q-20 -168 -109.5 -246t-263.5 -78q-170 0 -255 76.5t-101 247.5zM410 610h276l-78 340q-7 31 -31.5 155.5t-29.5 166.5 q-13 -86 -33 -189.5t-104 -472.5z" />
<glyph unicode="&#x4d1;" horiz-adv-x="956" d="M55 328q0 176 96.5 261.5t288.5 94.5l148 6v80q0 156 -135 156q-100 0 -230 -78l-92 184q166 105 361 105q177 0 269.5 -101.5t92.5 -287.5v-748h-195l-53 152h-6q-59 -98 -122 -135t-159 -37q-123 0 -193.5 92t-70.5 256zM124 1565h221q11 -100 42.5 -135t98.5 -35 q66 0 98.5 40t43.5 130h225q-20 -168 -109.5 -246t-263.5 -78q-170 0 -255 76.5t-101 247.5zM330 326q0 -138 98 -138q73 0 116.5 65.5t43.5 174.5v94l-82 -4q-91 -5 -133.5 -52t-42.5 -140z" />
<glyph unicode="&#x4d2;" horiz-adv-x="1094" d="M0 0l362 1468h369l363 -1468h-273l-84 369h-381l-84 -369h-272zM216 1741q0 61 35 95t97 34t97.5 -35.5t35.5 -93.5q0 -57 -35.5 -92t-97.5 -35t-97 33.5t-35 93.5zM410 610h276l-78 340q-7 31 -31.5 155.5t-29.5 166.5q-13 -86 -33 -189.5t-104 -472.5zM614 1741 q0 60 35 94.5t98 34.5q61 0 97 -34t36 -95q0 -59 -35.5 -93t-97.5 -34t-97.5 34.5t-35.5 92.5z" />
<glyph unicode="&#x4d3;" horiz-adv-x="956" d="M55 328q0 176 96.5 261.5t288.5 94.5l148 6v80q0 156 -135 156q-100 0 -230 -78l-92 184q166 105 361 105q177 0 269.5 -101.5t92.5 -287.5v-748h-195l-53 152h-6q-59 -98 -122 -135t-159 -37q-123 0 -193.5 92t-70.5 256zM164 1403q0 61 35 95t97 34t97.5 -35.5 t35.5 -93.5q0 -57 -35.5 -92t-97.5 -35t-97 33.5t-35 93.5zM330 326q0 -138 98 -138q73 0 116.5 65.5t43.5 174.5v94l-82 -4q-91 -5 -133.5 -52t-42.5 -140zM562 1403q0 60 35 94.5t98 34.5q61 0 97 -34t36 -95q0 -59 -35.5 -93t-97.5 -34t-97.5 34.5t-35.5 92.5z" />
<glyph unicode="&#x4d4;" horiz-adv-x="1425" d="M0 0l473 1462h866v-235h-383v-348h355v-236h-355v-405h383v-238h-655v369h-299l-113 -369h-272zM461 610h223v617h-39l-14 -49z" />
<glyph unicode="&#x4d5;" horiz-adv-x="1446" d="M55 328q0 176 96.5 261.5t288.5 94.5l148 6v78q0 158 -135 158q-100 0 -230 -78l-92 184q166 105 361 105q165 0 258 -93q99 91 241 91q184 0 287.5 -134t103.5 -370v-142h-534q3 -149 61 -221.5t160 -72.5q135 0 266 81v-219q-127 -77 -307 -77q-231 0 -344 180 q-57 -93 -132.5 -136.5t-180.5 -43.5q-154 0 -235 88.5t-81 259.5zM330 326q0 -138 98 -138q73 0 116.5 65.5t43.5 174.5v94l-82 -4q-91 -5 -133.5 -52t-42.5 -140zM854 682h270q-2 122 -37 185t-96 63q-125 0 -137 -248z" />
<glyph unicode="&#x4d6;" horiz-adv-x="872" d="M95 1903h221q11 -100 42.5 -135t98.5 -35q66 0 98.5 40t43.5 130h225q-20 -168 -109.5 -246t-263.5 -78q-170 0 -255 76.5t-101 247.5zM129 0v1462h659v-235h-387v-348h359v-236h-359v-405h387v-238h-659z" />
<glyph unicode="&#x4d7;" horiz-adv-x="942" d="M74 549q0 276 109 431t304 155q182 0 287 -132.5t105 -371.5v-142h-535q3 -149 61 -221.5t160 -72.5q130 0 266 81v-219q-128 -77 -307 -77q-209 0 -329.5 148.5t-120.5 420.5zM122 1565h221q11 -100 42.5 -135t98.5 -35q66 0 98.5 40t43.5 130h225q-20 -168 -109.5 -246 t-263.5 -78q-170 0 -255 76.5t-101 247.5zM348 682h270q-2 122 -37 185t-96 63q-57 0 -94 -60.5t-43 -187.5z" />
<glyph unicode="&#x4d8;" horiz-adv-x="1196" d="M76 756v71h782q-13 204 -90.5 311t-202.5 107q-213 0 -426 -172v270q112 80 213 111t221 31q267 0 414.5 -200.5t147.5 -555.5t-140.5 -552t-394.5 -197q-259 0 -391.5 193t-132.5 583zM352 588q4 -367 248 -367q110 0 177.5 98.5t76.5 268.5h-502z" />
<glyph unicode="&#x4d9;" horiz-adv-x="940" d="M72 483v142h534q-3 149 -61 223t-160 74q-128 0 -266 -84v219q128 78 307 78q212 0 331.5 -150.5t119.5 -419.5q0 -277 -110.5 -431t-303.5 -154q-183 0 -287 133t-104 370zM330 432q2 -122 37 -185t96 -63q125 0 137 248h-270z" />
<glyph unicode="&#x4da;" horiz-adv-x="1196" d="M76 756v71h782q-13 204 -90.5 311t-202.5 107q-213 0 -426 -172v270q112 80 213 111t221 31q267 0 414.5 -200.5t147.5 -555.5t-140.5 -552t-394.5 -197q-259 0 -391.5 193t-132.5 583zM274 1741q0 61 35 95t97 34t97.5 -35.5t35.5 -93.5q0 -57 -35.5 -92t-97.5 -35 t-97 33.5t-35 93.5zM352 588q4 -367 248 -367q110 0 177.5 98.5t76.5 268.5h-502zM672 1741q0 60 35 94.5t98 34.5q61 0 97 -34t36 -95q0 -59 -35.5 -93t-97.5 -34t-97.5 34.5t-35.5 92.5z" />
<glyph unicode="&#x4db;" horiz-adv-x="940" d="M72 483v142h534q-3 149 -61 223t-160 74q-128 0 -266 -84v219q128 78 307 78q212 0 331.5 -150.5t119.5 -419.5q0 -277 -110.5 -431t-303.5 -154q-183 0 -287 133t-104 370zM144 1403q0 61 35 95t97 34t97.5 -35.5t35.5 -93.5q0 -57 -35.5 -92t-97.5 -35t-97 33.5 t-35 93.5zM330 432q2 -122 37 -185t96 -63q125 0 137 248h-270zM542 1403q0 60 35 94.5t98 34.5q61 0 97 -34t36 -95q0 -59 -35.5 -93t-97.5 -34t-97.5 34.5t-35.5 92.5z" />
<glyph unicode="&#x4dc;" horiz-adv-x="1493" d="M0 0l365 758l-359 704h279l333 -708v708h254v-708l334 708h281l-359 -702l365 -760h-295l-326 741v-741h-254v741l-323 -741h-295zM415 1741q0 61 35 95t97 34t97.5 -35.5t35.5 -93.5q0 -57 -35.5 -92t-97.5 -35t-97 33.5t-35 93.5zM813 1741q0 60 35 94.5t98 34.5 q61 0 97 -34t36 -95q0 -59 -35.5 -93t-97.5 -34t-97.5 34.5t-35.5 92.5z" />
<glyph unicode="&#x4dd;" horiz-adv-x="1405" d="M0 0l317 586l-297 528h277l278 -534v534h256v-534l279 534h276l-299 -528l318 -586h-289l-285 573v-573h-256v573l-286 -573h-289zM372 1403q0 61 35 95t97 34t97.5 -35.5t35.5 -93.5q0 -57 -35.5 -92t-97.5 -35t-97 33.5t-35 93.5zM770 1403q0 60 35 94.5t98 34.5 q61 0 97 -34t36 -95q0 -59 -35.5 -93t-97.5 -34t-97.5 34.5t-35.5 92.5z" />
<glyph unicode="&#x4de;" horiz-adv-x="991" d="M61 1327q99 85 201 120.5t227 35.5q181 0 289.5 -100.5t108.5 -266.5q0 -136 -80.5 -225.5t-231.5 -120.5v-8q164 -20 254.5 -109.5t90.5 -238.5q0 -202 -129.5 -318t-352.5 -116q-236 0 -368 69v238q148 -82 315 -82q262 0 262 229q0 104 -75.5 158.5t-223.5 54.5h-98 v223h88q145 0 214 50.5t69 156.5q0 85 -46 130.5t-133 45.5q-133 0 -252 -108zM136 1741q0 61 35 95t97 34t97.5 -35.5t35.5 -93.5q0 -57 -35.5 -92t-97.5 -35t-97 33.5t-35 93.5zM534 1741q0 60 35 94.5t98 34.5q61 0 97 -34t36 -95q0 -59 -35.5 -93t-97.5 -34t-97.5 34.5 t-35.5 92.5z" />
<glyph unicode="&#x4df;" horiz-adv-x="864" d="M55 53v223q139 -77 291 -77q182 0 182 135q0 72 -43.5 109.5t-144.5 37.5h-109v199h109q91 0 135.5 29t44.5 100q0 115 -153 115q-54 0 -100 -15.5t-99 -48.5l-96 193q139 82 309 82q177 0 282 -79t105 -216q0 -191 -211 -250v-8q116 -27 177 -99t61 -184 q0 -148 -112.5 -233.5t-311.5 -85.5q-92 0 -175.5 20.5t-140.5 52.5zM72 1403q0 61 35 95t97 34t97.5 -35.5t35.5 -93.5q0 -57 -35.5 -92t-97.5 -35t-97 33.5t-35 93.5zM470 1403q0 60 35 94.5t98 34.5q61 0 97 -34t36 -95q0 -59 -35.5 -93t-97.5 -34t-97.5 34.5t-35.5 92.5 z" />
<glyph unicode="&#x4e0;" horiz-adv-x="907" d="M37 66v258q88 -59 174 -88t151 -29q226 0 226 231q0 211 -266 211h-107v199l270 377h-409v237h727v-182l-330 -430q179 -16 281 -128.5t102 -297.5q0 -210 -124.5 -327t-348.5 -117q-199 0 -346 86z" />
<glyph unicode="&#x4e1;" horiz-adv-x="868" d="M23 -150q83 -55 169 -84.5t154 -29.5q105 0 162 70.5t57 199.5q0 141 -66.5 214t-197.5 73h-102v192l301 412h-447v217h740v-180l-340 -442q179 -22 278.5 -153t99.5 -345q0 -222 -125.5 -354t-340.5 -132q-194 0 -342 84v258z" />
<glyph unicode="&#x4e2;" horiz-adv-x="1282" d="M129 0v1462h252v-803q0 -125 -19 -247h11l446 1050h334v-1462h-250v801q0 148 23 260h-13l-448 -1061h-336zM353 1614v199h606v-199h-606z" />
<glyph unicode="&#x4e3;" horiz-adv-x="1137" d="M113 0v1114h247v-516q0 -96 -24 -319l362 835h326v-1114h-248v524q0 118 23 318l-363 -842h-323zM273 1276v199h606v-199h-606z" />
<glyph unicode="&#x4e4;" horiz-adv-x="1282" d="M129 0v1462h252v-803q0 -125 -19 -247h11l446 1050h334v-1462h-250v801q0 148 23 260h-13l-448 -1061h-336zM319 1741q0 61 35 95t97 34t97.5 -35.5t35.5 -93.5q0 -57 -35.5 -92t-97.5 -35t-97 33.5t-35 93.5zM717 1741q0 60 35 94.5t98 34.5q61 0 97 -34t36 -95 q0 -59 -35.5 -93t-97.5 -34t-97.5 34.5t-35.5 92.5z" />
<glyph unicode="&#x4e5;" horiz-adv-x="1137" d="M113 0v1114h247v-516q0 -96 -24 -319l362 835h326v-1114h-248v524q0 118 23 318l-363 -842h-323zM245 1403q0 61 35 95t97 34t97.5 -35.5t35.5 -93.5q0 -57 -35.5 -92t-97.5 -35t-97 33.5t-35 93.5zM643 1403q0 60 35 94.5t98 34.5q61 0 97 -34t36 -95q0 -59 -35.5 -93 t-97.5 -34t-97.5 34.5t-35.5 92.5z" />
<glyph unicode="&#x4e6;" horiz-adv-x="1219" d="M84 735q0 363 136 556.5t392 193.5q253 0 388 -194.5t135 -557.5t-136 -558t-389 -195q-254 0 -390 194.5t-136 560.5zM278 1741q0 61 35 95t97 34t97.5 -35.5t35.5 -93.5q0 -57 -35.5 -92t-97.5 -35t-97 33.5t-35 93.5zM362 733q0 -250 63 -381t185 -131q246 0 246 512 t-244 512q-124 0 -187 -130.5t-63 -381.5zM676 1741q0 60 35 94.5t98 34.5q61 0 97 -34t36 -95q0 -59 -35.5 -93t-97.5 -34t-97.5 34.5t-35.5 92.5z" />
<glyph unicode="&#x4e7;" horiz-adv-x="1012" d="M74 559q0 271 115 423.5t319 152.5q197 0 313.5 -155.5t116.5 -420.5q0 -274 -116 -426.5t-318 -152.5q-128 0 -226 70t-151 201.5t-53 307.5zM175 1403q0 61 35 95t97 34t97.5 -35.5t35.5 -93.5q0 -57 -35.5 -92t-97.5 -35t-97 33.5t-35 93.5zM346 559q0 -174 38 -263 t122 -89q160 0 160 352q0 175 -38.5 261.5t-121.5 86.5q-84 0 -122 -86.5t-38 -261.5zM573 1403q0 60 35 94.5t98 34.5q61 0 97 -34t36 -95q0 -59 -35.5 -93t-97.5 -34t-97.5 34.5t-35.5 92.5z" />
<glyph unicode="&#x4e8;" horiz-adv-x="1219" d="M84 735q0 363 136 556.5t392 193.5q253 0 388 -194.5t135 -557.5t-136 -558t-389 -195q-254 0 -390 194.5t-136 560.5zM365 629q10 -197 72.5 -302.5t172.5 -105.5q111 0 172.5 105.5t71.5 302.5h-489zM369 868h483q-34 377 -240 377q-106 0 -167.5 -96.5t-75.5 -280.5z " />
<glyph unicode="&#x4e9;" horiz-adv-x="1012" d="M74 559q0 271 115 423.5t319 152.5q197 0 313.5 -155.5t116.5 -420.5q0 -274 -116 -426.5t-318 -152.5q-128 0 -226 70t-151 201.5t-53 307.5zM348 463q18 -256 158 -256q71 0 109 64t49 192h-316zM350 662h312q-11 123 -48 184t-108 61q-138 0 -156 -245z" />
<glyph unicode="&#x4ea;" horiz-adv-x="1219" d="M84 735q0 363 136 556.5t392 193.5q253 0 388 -194.5t135 -557.5t-136 -558t-389 -195q-254 0 -390 194.5t-136 560.5zM278 1741q0 61 35 95t97 34t97.5 -35.5t35.5 -93.5q0 -57 -35.5 -92t-97.5 -35t-97 33.5t-35 93.5zM365 629q10 -197 72.5 -302.5t172.5 -105.5 q111 0 172.5 105.5t71.5 302.5h-489zM369 868h483q-34 377 -240 377q-106 0 -167.5 -96.5t-75.5 -280.5zM676 1741q0 60 35 94.5t98 34.5q61 0 97 -34t36 -95q0 -59 -35.5 -93t-97.5 -34t-97.5 34.5t-35.5 92.5z" />
<glyph unicode="&#x4eb;" horiz-adv-x="1012" d="M74 559q0 271 115 423.5t319 152.5q197 0 313.5 -155.5t116.5 -420.5q0 -274 -116 -426.5t-318 -152.5q-128 0 -226 70t-151 201.5t-53 307.5zM175 1403q0 61 35 95t97 34t97.5 -35.5t35.5 -93.5q0 -57 -35.5 -92t-97.5 -35t-97 33.5t-35 93.5zM348 463q18 -256 158 -256 q71 0 109 64t49 192h-316zM350 662h312q-11 123 -48 184t-108 61q-138 0 -156 -245zM573 1403q0 60 35 94.5t98 34.5q61 0 97 -34t36 -95q0 -59 -35.5 -93t-97.5 -34t-97.5 34.5t-35.5 92.5z" />
<glyph unicode="&#x4ec;" d="M37 1384q72 47 146.5 74t168.5 27q245 0 378.5 -194.5t133.5 -551.5t-135.5 -558t-382.5 -201q-169 0 -274 71v242q125 -74 254 -74q233 0 256 406h-383v235h381q-26 385 -236 385q-99 0 -215 -82zM84 1741q0 61 35 95t97 34t97.5 -35.5t35.5 -93.5q0 -57 -35.5 -92 t-97.5 -35t-97 33.5t-35 93.5zM482 1741q0 60 35 94.5t98 34.5q61 0 97 -34t36 -95q0 -59 -35.5 -93t-97.5 -34t-97.5 34.5t-35.5 92.5z" />
<glyph unicode="&#x4ed;" horiz-adv-x="879" d="M53 51v219q99 -48 153 -61.5t105 -13.5q95 0 152 71t67 201h-317v195h317q-3 130 -51.5 196t-136.5 66q-57 0 -104.5 -17t-104.5 -45l-74 199q144 74 291 74q455 0 455 -566q0 -282 -123 -435.5t-358 -153.5q-152 0 -271 71zM58 1403q0 61 35 95t97 34t97.5 -35.5 t35.5 -93.5q0 -57 -35.5 -92t-97.5 -35t-97 33.5t-35 93.5zM456 1403q0 60 35 94.5t98 34.5q61 0 97 -34t36 -95q0 -59 -35.5 -93t-97.5 -34t-97.5 34.5t-35.5 92.5z" />
<glyph unicode="&#x4ee;" horiz-adv-x="971" d="M0 1462h285l186 -571q23 -79 29 -135h8l14 68l15 67l159 571h275l-326 -1034q-78 -245 -178.5 -346.5t-251.5 -101.5q-105 0 -176 28v242q73 -29 151 -29q120 0 185 223zM192 1614v199h606v-199h-606z" />
<glyph unicode="&#x4ef;" horiz-adv-x="913" d="M0 1114h276l154 -629q23 -84 37 -235h6q1 24 9 85.5t13 96.5t138 682h280l-319 -1194q-58 -220 -154 -316t-256 -96q-79 0 -141 17v223q41 -12 92 -12q134 0 176 176l19 70zM159 1276v199h606v-199h-606z" />
<glyph unicode="&#x4f0;" horiz-adv-x="971" d="M0 1462h285l186 -571q23 -79 29 -135h8l14 68l15 67l159 571h275l-326 -1034q-78 -245 -178.5 -346.5t-251.5 -101.5q-105 0 -176 28v242q73 -29 151 -29q120 0 185 223zM166 1741q0 61 35 95t97 34t97.5 -35.5t35.5 -93.5q0 -57 -35.5 -92t-97.5 -35t-97 33.5t-35 93.5z M564 1741q0 60 35 94.5t98 34.5q61 0 97 -34t36 -95q0 -59 -35.5 -93t-97.5 -34t-97.5 34.5t-35.5 92.5z" />
<glyph unicode="&#x4f1;" horiz-adv-x="913" d="M0 1114h276l154 -629q23 -84 37 -235h6q1 24 9 85.5t13 96.5t138 682h280l-319 -1194q-58 -220 -154 -316t-256 -96q-79 0 -141 17v223q41 -12 92 -12q134 0 176 176l19 70zM142 1403q0 61 35 95t97 34t97.5 -35.5t35.5 -93.5q0 -57 -35.5 -92t-97.5 -35t-97 33.5 t-35 93.5zM540 1403q0 60 35 94.5t98 34.5q61 0 97 -34t36 -95q0 -59 -35.5 -93t-97.5 -34t-97.5 34.5t-35.5 92.5z" />
<glyph unicode="&#x4f2;" horiz-adv-x="971" d="M0 1462h285l186 -571q23 -79 29 -135h8l14 68l15 67l159 571h275l-326 -1034q-78 -245 -178.5 -346.5t-251.5 -101.5q-105 0 -176 28v242q73 -29 151 -29q120 0 185 223zM209 1579v27q45 62 97 154t77 147h280v-21q-32 -52 -133.5 -152t-169.5 -155h-151zM600 1579v27 q45 62 97 154t77 147h280v-21q-25 -43 -121.5 -139t-183.5 -168h-149z" />
<glyph unicode="&#x4f3;" horiz-adv-x="913" d="M0 1114h276l154 -629q23 -84 37 -235h6q1 24 9 85.5t13 96.5t138 682h280l-319 -1194q-58 -220 -154 -316t-256 -96q-79 0 -141 17v223q41 -12 92 -12q134 0 176 176l19 70zM170 1241v27q45 62 97 154t77 147h280v-21q-32 -52 -133.5 -152t-169.5 -155h-151zM561 1241v27 q45 62 97 154t77 147h280v-21q-25 -43 -121.5 -139t-183.5 -168h-149z" />
<glyph unicode="&#x4f4;" horiz-adv-x="1155" d="M125 862v600h272v-540q0 -105 31.5 -153t103.5 -48q60 0 113 20.5t109 55.5v665h272v-1462h-272v567q-140 -86 -283 -86q-165 0 -255.5 100.5t-90.5 280.5zM256 1741q0 61 35 95t97 34t97.5 -35.5t35.5 -93.5q0 -57 -35.5 -92t-97.5 -35t-97 33.5t-35 93.5zM654 1741 q0 60 35 94.5t98 34.5q61 0 97 -34t36 -95q0 -59 -35.5 -93t-97.5 -34t-97.5 34.5t-35.5 92.5z" />
<glyph unicode="&#x4f5;" horiz-adv-x="1036" d="M102 678v436h267v-414q0 -77 25 -112t79 -35q56 0 98.5 23t85.5 57v481h269v-1114h-269v451q-138 -107 -276 -107q-137 0 -208 84t-71 250zM193 1403q0 61 35 95t97 34t97.5 -35.5t35.5 -93.5q0 -57 -35.5 -92t-97.5 -35t-97 33.5t-35 93.5zM591 1403q0 60 35 94.5 t98 34.5q61 0 97 -34t36 -95q0 -59 -35.5 -93t-97.5 -34t-97.5 34.5t-35.5 92.5z" />
<glyph unicode="&#x4f6;" horiz-adv-x="819" d="M129 0v1462h653v-235h-383v-998h162v-647h-264v418h-168z" />
<glyph unicode="&#x4f7;" horiz-adv-x="729" d="M113 0v1114h579v-215h-313v-690h147v-606h-262v397h-151z" />
<glyph unicode="&#x4f8;" horiz-adv-x="1518" d="M129 0v1462h272v-571h70q455 0 455 -426q0 -221 -117 -343t-332 -122h-348zM401 236h68q182 0 182 219q0 106 -44.5 152t-151.5 46h-54v-417zM428 1741q0 61 35 95t97 34t97.5 -35.5t35.5 -93.5q0 -57 -35.5 -92t-97.5 -35t-97 33.5t-35 93.5zM826 1741q0 60 35 94.5 t98 34.5q61 0 97 -34t36 -95q0 -59 -35.5 -93t-97.5 -34t-97.5 34.5t-35.5 92.5zM1116 0v1462h273v-1462h-273z" />
<glyph unicode="&#x4f9;" horiz-adv-x="1425" d="M113 0v1114h266v-436h80q221 0 326.5 -81t105.5 -245q0 -352 -440 -352h-338zM374 1403q0 61 35 95t97 34t97.5 -35.5t35.5 -93.5q0 -57 -35.5 -92t-97.5 -35t-97 33.5t-35 93.5zM379 199h63q85 0 130.5 33.5t45.5 113.5q0 71 -43.5 102t-136.5 31h-59v-280zM772 1403 q0 60 35 94.5t98 34.5q61 0 97 -34t36 -95q0 -59 -35.5 -93t-97.5 -34t-97.5 34.5t-35.5 92.5zM1047 0v1114h268v-1114h-268z" />
<glyph unicode="&#x4fa;" horiz-adv-x="831" d="M14 604v238h127v620h654v-235h-383v-385h237v-238h-237v-604h-271v604h-127zM178 -231q67 -19 117 -19q117 0 117 156v370h268v-401q0 -168 -84 -260t-246 -92q-104 0 -172 24v222z" />
<glyph unicode="&#x4fb;" horiz-adv-x="741" d="M8 430v217h117v467h580v-213h-312v-254h205v-217h-205v-430h-268v430h-117zM159 -231q67 -19 117 -19q117 0 117 156v336h268v-367q0 -168 -84 -260t-246 -92q-104 0 -172 24v222z" />
<glyph unicode="&#x4fc;" horiz-adv-x="1104" d="M0 0l334 760l-309 702h274l193 -481l167 481h285l-309 -714l334 -748h-283l-209 524l-194 -524h-283zM569 -231q67 -19 117 -19q117 0 117 156v370h268v-401q0 -168 -84 -260t-246 -92q-104 0 -172 24v222z" />
<glyph unicode="&#x4fd;" horiz-adv-x="999" d="M14 0l291 569l-278 545h276l148 -340l137 340h274l-280 -545l292 -569h-278l-158 356l-147 -356h-277zM473 -231q67 -19 117 -19q117 0 117 156v336h268v-367q0 -168 -84 -260t-246 -92q-104 0 -172 24v222z" />
<glyph unicode="&#x4fe;" horiz-adv-x="969" d="M0 0l279 633h-199v235h205l-260 594h274l193 -481l167 481h285l-256 -594h199v-235h-203l285 -633h-283l-209 524l-194 -524h-283z" />
<glyph unicode="&#x4ff;" horiz-adv-x="889" d="M14 0l236 459h-152v213h156l-227 442h276l148 -340l137 340h274l-229 -442h155v-213h-151l237 -459h-278l-158 356l-147 -356h-277z" />
<glyph unicode="&#x2000;" horiz-adv-x="1086" />
<glyph unicode="&#x2001;" horiz-adv-x="2173" />
<glyph unicode="&#x2002;" horiz-adv-x="1086" />
<glyph unicode="&#x2003;" horiz-adv-x="2173" />
<glyph unicode="&#x2004;" horiz-adv-x="724" />
<glyph unicode="&#x2005;" horiz-adv-x="543" />
<glyph unicode="&#x2006;" horiz-adv-x="362" />
<glyph unicode="&#x2007;" horiz-adv-x="362" />
<glyph unicode="&#x2008;" horiz-adv-x="271" />
<glyph unicode="&#x2009;" horiz-adv-x="434" />
<glyph unicode="&#x200a;" horiz-adv-x="120" />
<glyph unicode="&#x2010;" horiz-adv-x="647" d="M72 432v234h503v-234h-503z" />
<glyph unicode="&#x2011;" horiz-adv-x="647" d="M72 432v234h503v-234h-503z" />
<glyph unicode="&#x2012;" horiz-adv-x="647" d="M72 432v234h503v-234h-503z" />
<glyph unicode="&#x2013;" horiz-adv-x="973" d="M70 442v217h833v-217h-833z" />
<glyph unicode="&#x2014;" horiz-adv-x="1579" d="M70 442v217h1437v-217h-1437z" />
<glyph unicode="&#x2018;" horiz-adv-x="420" d="M20 983q25 97 73 228t104 251h202q-31 -125 -61 -277t-39 -224h-264z" />
<glyph unicode="&#x2019;" horiz-adv-x="420" d="M20 961q64 256 101 501h264l14 -22q-50 -197 -176 -479h-203z" />
<glyph unicode="&#x201a;" horiz-adv-x="553" d="M51 -264q65 266 101 502h264l14 -23q-52 -202 -176 -479h-203z" />
<glyph unicode="&#x201c;" horiz-adv-x="854" d="M20 983q25 97 73 228t104 251h202q-31 -125 -61 -277t-39 -224h-264zM455 983q31 118 83 254.5t93 224.5h203q-66 -267 -101 -501h-264z" />
<glyph unicode="&#x201d;" horiz-adv-x="854" d="M20 961q64 256 101 501h264l14 -22q-50 -197 -176 -479h-203zM455 961q62 246 100 501h264l15 -22q-49 -192 -177 -479h-202z" />
<glyph unicode="&#x201e;" horiz-adv-x="987" d="M51 -264q65 266 101 502h264l14 -23q-52 -202 -176 -479h-203zM485 -264q65 266 101 502h264l14 -23q-52 -202 -176 -479h-203z" />
<glyph unicode="&#x2026;" horiz-adv-x="1659" d="M111 137q0 78 41.5 121t123.5 43t124 -42.5t42 -121.5q0 -78 -43.5 -121t-122.5 -43q-81 0 -123 43.5t-42 120.5zM664 137q0 78 41.5 121t123.5 43t124 -42.5t42 -121.5q0 -78 -43.5 -121t-122.5 -43q-81 0 -123 43.5t-42 120.5zM1217 137q0 78 41.5 121t123.5 43 t124 -42.5t42 -121.5q0 -78 -43.5 -121t-122.5 -43q-81 0 -123 43.5t-42 120.5z" />
<glyph unicode="&#x202f;" horiz-adv-x="434" />
<glyph unicode="&#x2039;" horiz-adv-x="653" d="M74 543v26l307 447l199 -111l-220 -348l220 -348l-199 -111z" />
<glyph unicode="&#x203a;" horiz-adv-x="653" d="M74 209l219 348l-219 348l198 111l308 -447v-26l-308 -445z" />
<glyph unicode="&#x205f;" horiz-adv-x="543" />
<glyph unicode="&#x20ac;" d="M41 487v168h117v123h-117v168h129q38 263 162 401t315 138q87 0 151.5 -16.5t129.5 -53.5l-90 -215q-96 47 -179 47q-85 0 -140.5 -77.5t-78.5 -223.5h295v-168h-309v-123h264v-168h-248q51 -268 232 -268q108 0 233 74v-242q-109 -71 -262 -71q-194 0 -315 129.5 t-158 377.5h-131z" />
<glyph unicode="&#x2116;" horiz-adv-x="1755" d="M129 0v1462h340l326 -1093h8q-12 280 -12 374v719h233v-1462h-340l-330 1102h-10q18 -252 18 -387v-715h-233zM1120 635q0 172 74 266t211 94t209 -92t72 -268q0 -183 -75.5 -272t-207.5 -89q-283 0 -283 361zM1171 0v180h465v-180h-465zM1309 635q0 -205 94 -205 q51 0 72.5 51t21.5 154q0 105 -22.5 155t-71.5 50q-94 0 -94 -205z" />
<glyph unicode="&#x2122;" horiz-adv-x="1366" d="M12 1321v141h494v-141h-170v-580h-154v580h-170zM553 741v721h242l106 -489l117 489h239v-721h-153v452l2 81h-4l-127 -533h-148l-122 533h-7l4 -189v-344h-149z" />
<glyph unicode="&#x25fc;" horiz-adv-x="1115" d="M0 0v1115h1115v-1115h-1115z" />
</font>
</defs>
</svg>
